  0
SECTION
  2
HEADER
  9
$ACADVER
  1
AC1021
  9
$DWGCODEPAGE
  3
ANSI_1252
  9
$EXTMAX
 10
840.0
 20
594.0
 30
0.0
  9
$EXTMIN
 10
0.0
 20
0.0
 30
0.0
  9
$LIMMIN
 10
0.0
 20
0.0
  9
$LIMMAX
 10
840.0
 20
594.0
  9
$VIEWCTR
 10
420.0
 20
297.0
  9
$VIEWSIZE
 40
594.0
  9
$CLAYER
  8
0
  9
$LTSCALE
 40
46.2
  9
$CELTYPE
  6
BYLAYER
  9
$DIMSCALE
 40
1.0
  9
$DIMASZ
 40
7.0
  9
$DIMEXO
 40
5.25
  9
$DIMDLI
 40
31.92
  9
$DIMEXE
 40
15.12
  9
$DIMCEN
 40
7.56
  9
$DIMLFAC
 40
1.0
  9
$DIMBLK
  1
_FILLED
  9
$DIMTXT
 40
5.0
  9
$DIMTOL
 70
1
  9
$DIMLIM
 70
0
  9
$DIMTFAC
 40
1.0
  9
$DIMTP
 40
0.05
  9
$DIMTM
 40
0.05
  9
$PDMODE
 70
3
  9
$PDSIZE
 40
0.3125
  9
$HANDSEED
  5
56D
  9
$TILEMODE
 70
1
  9
$MEASUREMENT
 70
1
  9
$INSUNITS
 70
4
  0
ENDSEC
  0
SECTION
  2
CLASSES
  0
CLASS
  1
ACDBDICTIONARYWDFLT
  2
AcDbDictionaryWithDefault
  3
AutoCAD 2000
 90
0
 91
1
280
0
281
0
  0
CLASS
  1
ACDBPLACEHOLDER
  2
AcDbPlaceHolder
  3
AutoCAD 2000
 90
0
 91
1
280
0
281
0
  0
CLASS
  1
LAYOUT
  2
AcDbLayout
  3
AutoCAD 2000
 90
0
 91
0
280
0
281
0
  0
ENDSEC
  0
SECTION
  2
TABLES
  0
TABLE
  2
VPORT
  5
8
100
AcDbSymbolTable
 70
2
  0
VPORT
  5
1F4
100
AcDbSymbolTableRecord
100
AcDbViewportTableRecord
  2
*ACTIVE
 70
0
 10
0.0
 20
0.0
 11
1.0
 21
1.0
 12
420.0
 22
297.0
 13
0.0
 23
0.0
 14
1.0
 24
1.0
 15
0.0
 25
0.0
 16
0.0
 26
0.0
 36
1.0
 17
0.0
 27
0.0
 37
0.0
 40
594.0
 41
1.4141414141
 42
50.0
 43
0.0
 44
0.0
 50
0.0
 51
0.0
 71
0
 72
100
 73
1
 74
1
 75
0
 76
0
 77
0
 78
0
  0
ENDTAB
  0
TABLE
  2
LTYPE
  5
5
100
AcDbSymbolTable
 70
6
  0
LTYPE
  5
14
100
AcDbSymbolTableRecord
100
AcDbLinetypeTableRecord
  2
BYBLOCK
 70
0
  3

 72
65
 73
0
 40
0.0
  0
LTYPE
  5
15
100
AcDbSymbolTableRecord
100
AcDbLinetypeTableRecord
  2
BYLAYER
 70
0
  3

 72
65
 73
0
 40
0.0
  0
LTYPE
  5
16
100
AcDbSymbolTableRecord
100
AcDbLinetypeTableRecord
  2
CONTINUOUS
 70
64
  3
Solid line
 72
65
 73
0
 40
0.0
  0
LTYPE
  5
1F5
100
AcDbSymbolTableRecord
100
AcDbLinetypeTableRecord
  2
CENTER
 70
64
  3
____ _ ____ _ ____ _ ____ _ ____ _ ____ _ ____
 72
65
 73
4
 40
0.6
 49
0.375
 74
0
 49
-0.075
 74
0
 49
0.075
 74
0
 49
-0.075
 74
0
  0
LTYPE
  5
1F6
100
AcDbSymbolTableRecord
100
AcDbLinetypeTableRecord
  2
HIDDEN
 70
64
  3
- - - - - - - - - - - - - - - - - - - -
 72
65
 73
2
 40
0.2
 49
0.1
 74
0
 49
-0.1
 74
0
  0
LTYPE
  5
1F7
100
AcDbSymbolTableRecord
100
AcDbLinetypeTableRecord
  2
PHANTOM
 70
64
  3
_____ _ _ _____ _ _ _____ _ _ _____
 72
65
 73
6
 40
0.8
 49
0.45
 74
0
 49
-0.05
 74
0
 49
0.1
 74
0
 49
-0.05
 74
0
 49
0.1
 74
0
 49
-0.05
 74
0
  0
LTYPE
  5
1F8
100
AcDbSymbolTableRecord
100
AcDbLinetypeTableRecord
  2
DOT
 70
64
  3
. . . . . . . . . . . . . . . . . . . .
 72
65
 73
2
 40
0.2
 49
0.1
 74
0
 49
-0.1
 74
0
  0
LTYPE
  5
1F9
100
AcDbSymbolTableRecord
100
AcDbLinetypeTableRecord
  2
DASHED
 70
64
  3
- - - - - - - - - - - - - - - - - - - -
 72
65
 73
2
 40
0.2
 49
0.1
 74
0
 49
-0.1
 74
0
  0
ENDTAB
  0
TABLE
  2
LAYER
  5
2
100
AcDbSymbolTable
 70
36
  0
LAYER
  5
10
100
AcDbSymbolTableRecord
100
AcDbLayerTableRecord
  2
0
 70
0
 62
7
  6
CONTINUOUS
370
-3
390
F
  0
LAYER
  5
1FA
100
AcDbSymbolTableRecord
100
AcDbLayerTableRecord
  2
DEFAULT_1
 70
0
 62
7
  6
CENTER
370
-3
390
F
  0
LAYER
  5
1FB
100
AcDbSymbolTableRecord
100
AcDbLayerTableRecord
  2
DEFAULT_2
 70
0
 62
8
  6
HIDDEN
370
-3
390
F
  0
LAYER
  5
1FC
100
AcDbSymbolTableRecord
100
AcDbLayerTableRecord
  2
DEFAULT_3
 70
0
 62
7
  6
PHANTOM
370
-3
390
F
  0
LAYER
  5
1FD
100
AcDbSymbolTableRecord
100
AcDbLayerTableRecord
  2
BEZUGSACHSEN
 70
0
 62
7
  6
CONTINUOUS
370
-3
390
F
  0
LAYER
  5
1FE
100
AcDbSymbolTableRecord
100
AcDbLayerTableRecord
  2
BEZUGSEBENEN
 70
0
 62
7
  6
CONTINUOUS
370
-3
390
F
  0
LAYER
  5
1FF
100
AcDbSymbolTableRecord
100
AcDbLayerTableRecord
  2
BG_STARTBEZUEGE
 70
0
 62
7
  6
CONTINUOUS
370
-3
390
F
  0
LAYER
  5
200
100
AcDbSymbolTableRecord
100
AcDbLayerTableRecord
  2
BLATT1_AUSBLENDEN
 70
0
 62
7
  6
CONTINUOUS
370
-3
390
F
  0
LAYER
  5
201
100
AcDbSymbolTableRecord
100
AcDbLayerTableRecord
  2
BLATT1_LINKS_AUSBLENDEN
 70
0
 62
7
  6
CONTINUOUS
370
-3
390
F
  0
LAYER
  5
202
100
AcDbSymbolTableRecord
100
AcDbLayerTableRecord
  2
BOHRUNGEN
 70
0
 62
7
  6
CONTINUOUS
370
-3
390
F
  0
LAYER
  5
203
100
AcDbSymbolTableRecord
100
AcDbLayerTableRecord
  2
FASEN
 70
0
 62
7
  6
CONTINUOUS
370
-3
390
F
  0
LAYER
  5
204
100
AcDbSymbolTableRecord
100
AcDbLayerTableRecord
  2
FLAECHEN
 70
0
 62
7
  6
CONTINUOUS
370
-3
390
F
  0
LAYER
  5
205
100
AcDbSymbolTableRecord
100
AcDbLayerTableRecord
  2
GEWINDE
 70
0
 62
7
  6
CONTINUOUS
370
-3
390
F
  0
LAYER
  5
206
100
AcDbSymbolTableRecord
100
AcDbLayerTableRecord
  2
HILFEN
 70
0
 62
7
  6
CONTINUOUS
370
-3
390
F
  0
LAYER
  5
207
100
AcDbSymbolTableRecord
100
AcDbLayerTableRecord
  2
KOSMETIKAS_BLATT2_AUSBLENDEN
 70
0
 62
7
  6
CONTINUOUS
370
-3
390
F
  0
LAYER
  5
208
100
AcDbSymbolTableRecord
100
AcDbLayerTableRecord
  2
KOSMETIKA_BLATT1_LINKS
 70
0
 62
7
  6
CONTINUOUS
370
-3
390
F
  0
LAYER
  5
209
100
AcDbSymbolTableRecord
100
AcDbLayerTableRecord
  2
KOSM_3D
 70
0
 62
7
  6
CONTINUOUS
370
-3
390
F
  0
LAYER
  5
20A
100
AcDbSymbolTableRecord
100
AcDbLayerTableRecord
  2
KOSM_NEW_VIEW10
 70
0
 62
7
  6
CONTINUOUS
370
-3
390
F
  0
LAYER
  5
20B
100
AcDbSymbolTableRecord
100
AcDbLayerTableRecord
  2
KURVEN
 70
0
 62
7
  6
CONTINUOUS
370
-3
390
F
  0
LAYER
  5
20C
100
AcDbSymbolTableRecord
100
AcDbLayerTableRecord
  2
LAY0001
 70
0
 62
7
  6
CONTINUOUS
370
-3
390
F
  0
LAYER
  5
20D
100
AcDbSymbolTableRecord
100
AcDbLayerTableRecord
  2
MOTOR
 70
0
 62
7
  6
CONTINUOUS
370
-3
390
F
  0
LAYER
  5
20E
100
AcDbSymbolTableRecord
100
AcDbLayerTableRecord
  2
PLAZIERUNG
 70
0
 62
7
  6
CONTINUOUS
370
-3
390
F
  0
LAYER
  5
20F
100
AcDbSymbolTableRecord
100
AcDbLayerTableRecord
  2
RUNDUNGEN
 70
0
 62
7
  6
CONTINUOUS
370
-3
390
F
  0
LAYER
  5
210
100
AcDbSymbolTableRecord
100
AcDbLayerTableRecord
  2
STOERK
 70
0
 62
7
  6
CONTINUOUS
370
-3
390
F
  0
LAYER
  5
211
100
AcDbSymbolTableRecord
100
AcDbLayerTableRecord
  2
TEIL_STARTBEZUEGE
 70
0
 62
7
  6
CONTINUOUS
370
-3
390
F
  0
LAYER
  5
212
100
AcDbSymbolTableRecord
100
AcDbLayerTableRecord
  2
XSEC_DATUMS
 70
0
 62
7
  6
CONTINUOUS
370
-3
390
F
  0
LAYER
  5
213
100
AcDbSymbolTableRecord
100
AcDbLayerTableRecord
  2
ZEICHNUNGSBEMASSUNGEN
 70
0
 62
7
  6
CONTINUOUS
370
-3
390
F
  0
LAYER
  5
214
100
AcDbSymbolTableRecord
100
AcDbLayerTableRecord
  2
_2D_DELETED_OBJS
 70
0
 62
7
  6
CONTINUOUS
370
-3
390
F
  0
LAYER
  5
215
100
AcDbSymbolTableRecord
100
AcDbLayerTableRecord
  2
_BLACK_HOLE
 70
0
 62
7
  6
CONTINUOUS
370
-3
390
F
  0
ENDTAB
  0
TABLE
  2
STYLE
  5
3
100
AcDbSymbolTable
 70
1
  0
STYLE
  5
11
100
AcDbSymbolTableRecord
100
AcDbTextStyleTableRecord
  2
STANDARD
 70
0
 40
0.0
 41
0.7
 50
0.0
 71
0
 42
0.2
  3
txt
  4

  0
STYLE
  5
216
100
AcDbSymbolTableRecord
100
AcDbTextStyleTableRecord
  2
TEXTSTYLE_1
 70
0
 40
0.0
 41
0.8
 50
0.0
 71
0
 42
0.2
  3
gdt
  4

  0
STYLE
  5
217
100
AcDbSymbolTableRecord
100
AcDbTextStyleTableRecord
  2
TEXTSTYLE_2
 70
0
 40
0.0
 41
0.7
 50
0.0
 71
0
 42
0.2
  3
gdt
  4

  0
ENDTAB
  0
TABLE
  2
VIEW
  5
6
100
AcDbSymbolTable
 70
0
  0
ENDTAB
  0
TABLE
  2
UCS
  5
7
100
AcDbSymbolTable
 70
0
  0
ENDTAB
  0
TABLE
  2
APPID
  5
9
100
AcDbSymbolTable
 70
1
  0
APPID
  5
218
100
AcDbSymbolTableRecord
100
AcDbRegAppTableRecord
  2
ACAD
 70
0
  0
ENDTAB
  0
TABLE
  2
BLOCK_RECORD
  5
1
100
AcDbSymbolTable
 70
0
  0
BLOCK_RECORD
  5
219
100
AcDbSymbolTableRecord
100
AcDbBlockTableRecord
  2
*Model_Space
  0
BLOCK_RECORD
  5
21A
100
AcDbSymbolTableRecord
100
AcDbBlockTableRecord
  2
*Paper_Space
  0
BLOCK_RECORD
  5
21B
100
AcDbSymbolTableRecord
100
AcDbBlockTableRecord
  2
_FILLED
  0
BLOCK_RECORD
  5
21C
100
AcDbSymbolTableRecord
100
AcDbBlockTableRecord
  2
_NONE
  0
BLOCK_RECORD
  5
21D
100
AcDbSymbolTableRecord
100
AcDbBlockTableRecord
  2
*D0
  0
BLOCK_RECORD
  5
21E
100
AcDbSymbolTableRecord
100
AcDbBlockTableRecord
  2
*D1
  0
BLOCK_RECORD
  5
21F
100
AcDbSymbolTableRecord
100
AcDbBlockTableRecord
  2
*D2
  0
BLOCK_RECORD
  5
220
100
AcDbSymbolTableRecord
100
AcDbBlockTableRecord
  2
*D3
  0
BLOCK_RECORD
  5
221
100
AcDbSymbolTableRecord
100
AcDbBlockTableRecord
  2
*D4
  0
BLOCK_RECORD
  5
222
100
AcDbSymbolTableRecord
100
AcDbBlockTableRecord
  2
*D5
  0
BLOCK_RECORD
  5
223
100
AcDbSymbolTableRecord
100
AcDbBlockTableRecord
  2
*D6
  0
BLOCK_RECORD
  5
224
100
AcDbSymbolTableRecord
100
AcDbBlockTableRecord
  2
*D7
  0
BLOCK_RECORD
  5
225
100
AcDbSymbolTableRecord
100
AcDbBlockTableRecord
  2
*D8
  0
BLOCK_RECORD
  5
226
100
AcDbSymbolTableRecord
100
AcDbBlockTableRecord
  2
*D9
  0
BLOCK_RECORD
  5
227
100
AcDbSymbolTableRecord
100
AcDbBlockTableRecord
  2
*D10
  0
BLOCK_RECORD
  5
228
100
AcDbSymbolTableRecord
100
AcDbBlockTableRecord
  2
*D11
  0
BLOCK_RECORD
  5
229
100
AcDbSymbolTableRecord
100
AcDbBlockTableRecord
  2
*D12
  0
BLOCK_RECORD
  5
22A
100
AcDbSymbolTableRecord
100
AcDbBlockTableRecord
  2
*D13
  0
BLOCK_RECORD
  5
22B
100
AcDbSymbolTableRecord
100
AcDbBlockTableRecord
  2
*D14
  0
BLOCK_RECORD
  5
22C
100
AcDbSymbolTableRecord
100
AcDbBlockTableRecord
  2
*D15
  0
BLOCK_RECORD
  5
22D
100
AcDbSymbolTableRecord
100
AcDbBlockTableRecord
  2
*D16
  0
BLOCK_RECORD
  5
22E
100
AcDbSymbolTableRecord
100
AcDbBlockTableRecord
  2
*D17
  0
BLOCK_RECORD
  5
22F
100
AcDbSymbolTableRecord
100
AcDbBlockTableRecord
  2
*D18
  0
BLOCK_RECORD
  5
230
100
AcDbSymbolTableRecord
100
AcDbBlockTableRecord
  2
*D19
  0
BLOCK_RECORD
  5
231
100
AcDbSymbolTableRecord
100
AcDbBlockTableRecord
  2
*D20
  0
BLOCK_RECORD
  5
232
100
AcDbSymbolTableRecord
100
AcDbBlockTableRecord
  2
*D21
  0
BLOCK_RECORD
  5
233
100
AcDbSymbolTableRecord
100
AcDbBlockTableRecord
  2
*D22
  0
BLOCK_RECORD
  5
234
100
AcDbSymbolTableRecord
100
AcDbBlockTableRecord
  2
*D23
  0
BLOCK_RECORD
  5
235
100
AcDbSymbolTableRecord
100
AcDbBlockTableRecord
  2
*D24
  0
BLOCK_RECORD
  5
236
100
AcDbSymbolTableRecord
100
AcDbBlockTableRecord
  2
*D25
  0
BLOCK_RECORD
  5
237
100
AcDbSymbolTableRecord
100
AcDbBlockTableRecord
  2
*D26
  0
BLOCK_RECORD
  5
238
100
AcDbSymbolTableRecord
100
AcDbBlockTableRecord
  2
*D27
  0
BLOCK_RECORD
  5
239
100
AcDbSymbolTableRecord
100
AcDbBlockTableRecord
  2
*D28
  0
BLOCK_RECORD
  5
23A
100
AcDbSymbolTableRecord
100
AcDbBlockTableRecord
  2
*D29
  0
BLOCK_RECORD
  5
23B
100
AcDbSymbolTableRecord
100
AcDbBlockTableRecord
  2
SYMBOL_146_BL6
  0
BLOCK_RECORD
  5
23C
100
AcDbSymbolTableRecord
100
AcDbBlockTableRecord
  2
SYMBOL_176_BL5
  0
BLOCK_RECORD
  5
23D
100
AcDbSymbolTableRecord
100
AcDbBlockTableRecord
  2
SYMBOL_173_BL4
  0
BLOCK_RECORD
  5
23E
100
AcDbSymbolTableRecord
100
AcDbBlockTableRecord
  2
SYMBOL_179_BL3
  0
BLOCK_RECORD
  5
23F
100
AcDbSymbolTableRecord
100
AcDbBlockTableRecord
  2
SYMBOL_115_BL2
  0
BLOCK_RECORD
  5
240
100
AcDbSymbolTableRecord
100
AcDbBlockTableRecord
  2
SYMBOL_143_BL1
  0
BLOCK_RECORD
  5
241
100
AcDbSymbolTableRecord
100
AcDbBlockTableRecord
  2
SYMBOL_152_BL0
  0
ENDTAB
  0
TABLE
  2
DIMSTYLE
  5
A
100
AcDbSymbolTable
 70
1
100
AcDbDimStyleTable
 71
0
  0
DIMSTYLE
105
242
100
AcDbSymbolTableRecord
100
AcDbDimStyleTableRecord
  2
STANDARD
 70
0
  3

  4

 40
1.0
 41
7.0
 42
0.0625
 43
0.38
 44
0.18
 45
0.0
 46
0.0
 47
0.05
 48
0.05
140
5.0
141
0.09
142
0.0
143
25.4
144
1.0
145
0.0
146
1.0
147
0.09
 71
1.0
 72
0.0
 73
0
 74
0
 75
0
 76
0
 77
1
 78
8
170
0
171
2
172
0
173
0
174
0
175
0
176
0
177
0
178
5
270
2
271
2
272
2
273
2
274
2
275
0
280
0
281
0
282
0
283
1
284
8
285
0
286
0
287
3
288
0
340
11
341
21B
342
21B
343
21B
344
21B
  0
DIMSTYLE
105
243
100
AcDbSymbolTableRecord
100
AcDbDimStyleTableRecord
  2
DIMSTYLE_1
 70
0
  3

  4

 40
1.0
 41
7.0
 42
0.0625
 43
0.38
 44
0.18
 45
0.0
 46
0.0
 47
0.3
 48
0.3
140
5.0
141
0.09
142
0.0
143
25.4
144
1.0
145
0.0
146
1.0
147
0.09
 71
0.0
 72
0.0
 73
0
 74
0
 75
0
 76
0
 77
1
 78
8
170
0
171
2
172
0
173
0
174
0
175
0
176
0
177
0
178
5
270
2
271
2
272
2
273
2
274
2
275
0
280
0
281
0
282
0
283
1
284
8
285
0
286
0
287
3
288
0
340
11
341
21B
342
21B
343
21B
344
21B
  0
DIMSTYLE
105
244
100
AcDbSymbolTableRecord
100
AcDbDimStyleTableRecord
  2
DIMSTYLE_2
 70
0
  3

  4

 40
1.0
 41
7.0
 42
0.0625
 43
0.38
 44
0.18
 45
0.0
 46
0.0
 47
0.5
 48
0.5
140
5.0
141
0.09
142
0.0
143
25.4
144
1.0
145
0.0
146
1.0
147
0.09
 71
0.0
 72
0.0
 73
0
 74
0
 75
0
 76
0
 77
1
 78
8
170
0
171
2
172
0
173
0
174
0
175
0
176
0
177
0
178
5
270
2
271
2
272
2
273
2
274
2
275
0
280
0
281
0
282
0
283
1
284
8
285
0
286
0
287
3
288
0
340
11
341
21B
342
21B
343
21B
344
21B
  0
DIMSTYLE
105
245
100
AcDbSymbolTableRecord
100
AcDbDimStyleTableRecord
  2
DIMSTYLE_3
 70
0
  3

  4

 40
1.0
 41
7.0
 42
0.0625
 43
0.38
 44
0.18
 45
0.0
 46
0.0
 47
0.2
 48
0.2
140
5.0
141
0.09
142
0.0
143
25.4
144
1.0
145
0.0
146
1.0
147
0.09
 71
0.0
 72
0.0
 73
0
 74
0
 75
0
 76
0
 77
1
 78
8
170
0
171
2
172
0
173
0
174
0
175
0
176
0
177
0
178
5
270
2
271
2
272
2
273
2
274
2
275
0
280
0
281
0
282
0
283
1
284
8
285
0
286
0
287
3
288
0
340
11
341
21B
342
21B
343
21B
344
21B
  0
DIMSTYLE
105
246
100
AcDbSymbolTableRecord
100
AcDbDimStyleTableRecord
  2
DIMSTYLE_4
 70
0
  3

  4

 40
1.0
 41
7.0
 42
0.0625
 43
0.38
 44
0.18
 45
0.0
 46
0.0
 47
0.5
 48
0.5
140
5.0
141
0.09
142
0.0
143
25.4
144
1.0
145
0.0
146
1.0
147
0.09
 71
0.0
 72
0.0
 73
0
 74
0
 75
0
 76
0
 77
1
 78
8
170
0
171
2
172
0
173
0
174
0
175
0
176
0
177
0
178
5
270
2
271
2
272
2
273
2
274
2
275
0
280
0
281
0
282
0
283
1
284
8
285
0
286
0
287
3
288
0
340
11
341
21B
342
21B
343
21B
344
21B
  0
DIMSTYLE
105
247
100
AcDbSymbolTableRecord
100
AcDbDimStyleTableRecord
  2
DIMSTYLE_5
 70
0
  3

  4

 40
1.0
 41
7.0
 42
0.0625
 43
0.38
 44
0.18
 45
0.0
 46
0.0
 47
0.1
 48
0.1
140
5.0
141
0.09
142
0.0
143
25.4
144
1.0
145
0.0
146
1.0
147
0.09
 71
0.0
 72
0.0
 73
0
 74
0
 75
0
 76
0
 77
1
 78
8
170
0
171
2
172
0
173
0
174
0
175
0
176
0
177
0
178
5
270
2
271
2
272
2
273
2
274
2
275
0
280
0
281
0
282
0
283
1
284
8
285
0
286
0
287
3
288
0
340
11
341
21B
342
21B
343
21B
344
21B
  0
DIMSTYLE
105
248
100
AcDbSymbolTableRecord
100
AcDbDimStyleTableRecord
  2
DIMSTYLE_6
 70
0
  3

  4

 40
1.0
 41
7.0
 42
0.0625
 43
0.38
 44
0.18
 45
0.0
 46
0.0
 47
0.3
 48
0.3
140
5.0
141
0.09
142
0.0
143
25.4
144
1.0
145
0.0
146
1.0
147
0.09
 71
0.0
 72
0.0
 73
0
 74
0
 75
0
 76
0
 77
1
 78
8
170
0
171
2
172
0
173
0
174
0
175
0
176
0
177
0
178
5
270
2
271
3
272
3
273
2
274
2
275
0
280
0
281
0
282
0
283
1
284
8
285
0
286
0
287
3
288
0
340
11
341
21B
342
21B
343
21B
344
21B
  0
DIMSTYLE
105
249
100
AcDbSymbolTableRecord
100
AcDbDimStyleTableRecord
  2
DIMSTYLE_7
 70
0
  3

  4

 40
1.0
 41
7.0
 42
0.0625
 43
0.38
 44
0.18
 45
0.0
 46
0.0
 47
0.1
 48
0.1
140
5.0
141
0.09
142
0.0
143
25.4
144
1.0
145
0.0
146
1.0
147
0.09
 71
0.0
 72
0.0
 73
0
 74
0
 75
0
 76
0
 77
1
 78
8
170
0
171
2
172
0
173
0
174
0
175
0
176
0
177
0
178
5
270
2
271
3
272
3
273
2
274
2
275
0
280
0
281
0
282
0
283
1
284
8
285
0
286
0
287
3
288
0
340
11
341
21B
342
21B
343
21B
344
21B
  0
DIMSTYLE
105
24A
100
AcDbSymbolTableRecord
100
AcDbDimStyleTableRecord
  2
DIMSTYLE_8
 70
0
  3

  4

 40
1.0
 41
7.0
 42
0.0625
 43
0.38
 44
0.18
 45
0.0
 46
0.0
 47
0.3
 48
0.3
140
5.0
141
0.09
142
0.0
143
25.4
144
1.0
145
0.0
146
1.0
147
0.09
 71
0.0
 72
0.0
 73
0
 74
0
 75
0
 76
0
 77
1
 78
8
170
0
171
2
172
0
173
0
174
0
175
0
176
0
177
0
178
5
270
2
271
3
272
3
273
2
274
2
275
0
280
0
281
0
282
0
283
1
284
8
285
0
286
0
287
3
288
0
340
11
341
21B
342
21B
343
21B
344
21B
  0
DIMSTYLE
105
24B
100
AcDbSymbolTableRecord
100
AcDbDimStyleTableRecord
  2
DIMSTYLE_9
 70
0
  3

  4

 40
1.0
 41
7.0
 42
0.0625
 43
0.38
 44
0.18
 45
0.0
 46
0.0
 47
0.5
 48
0.5
140
5.0
141
0.09
142
0.0
143
25.4
144
1.0
145
0.0
146
1.0
147
0.09
 71
0.0
 72
0.0
 73
0
 74
0
 75
0
 76
0
 77
1
 78
8
170
0
171
2
172
0
173
0
174
0
175
0
176
0
177
0
178
5
270
2
271
3
272
3
273
2
274
2
275
0
280
0
281
0
282
0
283
1
284
8
285
0
286
0
287
3
288
0
340
11
341
21B
342
21B
343
21B
344
21B
  0
DIMSTYLE
105
24C
100
AcDbSymbolTableRecord
100
AcDbDimStyleTableRecord
  2
DIMSTYLE_10
 70
0
  3

  4

 40
1.0
 41
7.0
 42
0.0625
 43
0.38
 44
0.18
 45
0.0
 46
0.0
 47
0.5
 48
0.5
140
5.0
141
0.09
142
0.0
143
25.4
144
1.0
145
0.0
146
1.0
147
0.09
 71
0.0
 72
0.0
 73
0
 74
0
 75
0
 76
0
 77
1
 78
8
170
0
171
2
172
0
173
0
174
0
175
0
176
0
177
0
178
5
270
2
271
3
272
3
273
2
274
2
275
0
280
0
281
0
282
0
283
1
284
8
285
0
286
0
287
3
288
0
340
11
341
21B
342
21B
343
21B
344
21B
  0
DIMSTYLE
105
24D
100
AcDbSymbolTableRecord
100
AcDbDimStyleTableRecord
  2
DIMSTYLE_11
 70
0
  3

  4

 40
1.0
 41
7.0
 42
0.0625
 43
0.38
 44
0.18
 45
0.0
 46
0.0
 47
0.001
 48
0.001
140
5.0
141
0.09
142
0.0
143
25.4
144
1.0
145
0.0
146
1.0
147
0.09
 71
0.0
 72
0.0
 73
0
 74
0
 75
0
 76
0
 77
1
 78
8
170
0
171
2
172
0
173
0
174
0
175
0
176
0
177
0
178
5
270
2
271
3
272
3
273
2
274
2
275
0
280
0
281
0
282
0
283
1
284
8
285
0
286
0
287
3
288
0
340
11
341
21B
342
21B
343
21B
344
21B
  0
ENDTAB
  0
ENDSEC
  0
SECTION
  2
BLOCKS
  0
BLOCK
  5
20
100
AcDbEntity
  8
0
100
AcDbBlockBegin
  2
*Model_Space
 70
0
 10
0.0
 20
0.0
 30
0.0
  3
*Model_Space
  1

  0
ENDBLK
  5
21
100
AcDbEntity
  8
0
100
AcDbBlockEnd
  0
BLOCK
  5
1C
100
AcDbEntity
  8
0
100
AcDbBlockBegin
  2
*Paper_Space
 70
0
 10
0.0
 20
0.0
 30
0.0
  3
*Paper_Space
  1

  0
ENDBLK
  5
1D
100
AcDbEntity
  8
0
100
AcDbBlockEnd
  0
BLOCK
  5
24E
100
AcDbEntity
  8
0
100
AcDbBlockBegin
 62
2
  6
CONTINUOUS
  2
SYMBOL_146_BL6
 70
64
 10
474.5149554439
 20
325.9409338921
  3
SYMBOL_146_BL6
  1

  0
LINE
  5
24F
100
AcDbEntity
  8
0
100
AcDbLine
 62
2
  6
CONTINUOUS
 10
462.0149554439
 20
328.9520892706
 11
462.0149554439
 21
322.9520892706
  0
LINE
  5
250
100
AcDbEntity
  8
0
100
AcDbLine
 62
2
  6
CONTINUOUS
 10
462.0149554439
 20
328.9409338921
 11
467.0149554439
 21
325.9409338921
  0
LINE
  5
251
100
AcDbEntity
  8
0
100
AcDbLine
 62
2
  6
CONTINUOUS
 10
467.0149554439
 20
325.9409338921
 11
462.0149554439
 21
322.9409338921
  0
LINE
  5
252
100
AcDbEntity
  8
0
100
AcDbLine
 62
2
  6
CONTINUOUS
 10
467.0149554439
 20
325.9409338921
 11
473.0149554439
 21
325.9409338921
  0
LINE
  5
253
100
AcDbEntity
  8
0
100
AcDbLine
 62
2
  6
CONTINUOUS
 10
473.0149554439
 20
332.9409338921
 11
473.0149554439
 21
318.9409338921
  0
LINE
  5
254
100
AcDbEntity
  8
0
100
AcDbLine
 62
2
  6
CONTINUOUS
 10
473.0149554439
 20
318.9409338921
 11
487.0149554439
 21
318.9409338921
  0
LINE
  5
255
100
AcDbEntity
  8
0
100
AcDbLine
 62
2
  6
CONTINUOUS
 10
487.0149554439
 20
318.9409338921
 11
487.0149554439
 21
332.9409338921
  0
LINE
  5
256
100
AcDbEntity
  8
0
100
AcDbLine
 62
2
  6
CONTINUOUS
 10
487.0149554439
 20
332.9409338921
 11
473.0149554439
 21
332.9409338921
  0
LINE
  5
257
100
AcDbEntity
  8
0
100
AcDbLine
 62
2
  6
CONTINUOUS
 10
462.0149554439
 20
323.1465115813
 11
462.357584926
 21
323.1465115813
  0
LINE
  5
258
100
AcDbEntity
  8
0
100
AcDbLine
 62
2
  6
CONTINUOUS
 10
462.0149554439
 20
323.3465115813
 11
462.6909182593
 21
323.3465115813
  0
LINE
  5
259
100
AcDbEntity
  8
0
100
AcDbLine
 62
2
  6
CONTINUOUS
 10
462.0149554439
 20
323.5465115813
 11
463.0242515926
 21
323.5465115813
  0
LINE
  5
25A
100
AcDbEntity
  8
0
100
AcDbLine
 62
2
  6
CONTINUOUS
 10
462.0149554439
 20
323.7465115813
 11
463.357584926
 21
323.7465115813
  0
LINE
  5
25B
100
AcDbEntity
  8
0
100
AcDbLine
 62
2
  6
CONTINUOUS
 10
462.0149554439
 20
323.9465115813
 11
463.6909182593
 21
323.9465115813
  0
LINE
  5
25C
100
AcDbEntity
  8
0
100
AcDbLine
 62
2
  6
CONTINUOUS
 10
462.0149554439
 20
324.1465115813
 11
464.0242515926
 21
324.1465115813
  0
LINE
  5
25D
100
AcDbEntity
  8
0
100
AcDbLine
 62
2
  6
CONTINUOUS
 10
462.0149554439
 20
324.3465115813
 11
464.357584926
 21
324.3465115813
  0
LINE
  5
25E
100
AcDbEntity
  8
0
100
AcDbLine
 62
2
  6
CONTINUOUS
 10
462.0149554439
 20
324.5465115813
 11
464.6909182593
 21
324.5465115813
  0
LINE
  5
25F
100
AcDbEntity
  8
0
100
AcDbLine
 62
2
  6
CONTINUOUS
 10
462.0149554439
 20
324.7465115813
 11
465.0242515926
 21
324.7465115813
  0
LINE
  5
260
100
AcDbEntity
  8
0
100
AcDbLine
 62
2
  6
CONTINUOUS
 10
462.0149554439
 20
324.9465115813
 11
465.357584926
 21
324.9465115813
  0
LINE
  5
261
100
AcDbEntity
  8
0
100
AcDbLine
 62
2
  6
CONTINUOUS
 10
462.0149554439
 20
325.1465115813
 11
465.6909182593
 21
325.1465115813
  0
LINE
  5
262
100
AcDbEntity
  8
0
100
AcDbLine
 62
2
  6
CONTINUOUS
 10
462.0149554439
 20
325.3465115813
 11
466.0242515926
 21
325.3465115813
  0
LINE
  5
263
100
AcDbEntity
  8
0
100
AcDbLine
 62
2
  6
CONTINUOUS
 10
462.0149554439
 20
325.5465115813
 11
466.357584926
 21
325.5465115813
  0
LINE
  5
264
100
AcDbEntity
  8
0
100
AcDbLine
 62
2
  6
CONTINUOUS
 10
462.0149554439
 20
325.7465115813
 11
466.6909182593
 21
325.7465115813
  0
LINE
  5
265
100
AcDbEntity
  8
0
100
AcDbLine
 62
2
  6
CONTINUOUS
 10
462.0149554439
 20
325.9465115813
 11
467.0056592952
 21
325.9465115813
  0
LINE
  5
266
100
AcDbEntity
  8
0
100
AcDbLine
 62
2
  6
CONTINUOUS
 10
462.0149554439
 20
326.1465115813
 11
466.6723259618
 21
326.1465115813
  0
LINE
  5
267
100
AcDbEntity
  8
0
100
AcDbLine
 62
2
  6
CONTINUOUS
 10
462.0149554439
 20
326.3465115813
 11
466.3389926285
 21
326.3465115813
  0
LINE
  5
268
100
AcDbEntity
  8
0
100
AcDbLine
 62
2
  6
CONTINUOUS
 10
462.0149554439
 20
326.5465115813
 11
466.0056592952
 21
326.5465115813
  0
LINE
  5
269
100
AcDbEntity
  8
0
100
AcDbLine
 62
2
  6
CONTINUOUS
 10
462.0149554439
 20
326.7465115813
 11
465.6723259618
 21
326.7465115813
  0
LINE
  5
26A
100
AcDbEntity
  8
0
100
AcDbLine
 62
2
  6
CONTINUOUS
 10
462.0149554439
 20
326.9465115813
 11
465.3389926285
 21
326.9465115813
  0
LINE
  5
26B
100
AcDbEntity
  8
0
100
AcDbLine
 62
2
  6
CONTINUOUS
 10
462.0149554439
 20
327.1465115813
 11
465.0056592952
 21
327.1465115813
  0
LINE
  5
26C
100
AcDbEntity
  8
0
100
AcDbLine
 62
2
  6
CONTINUOUS
 10
462.0149554439
 20
327.3465115813
 11
464.6723259618
 21
327.3465115813
  0
LINE
  5
26D
100
AcDbEntity
  8
0
100
AcDbLine
 62
2
  6
CONTINUOUS
 10
462.0149554439
 20
327.5465115813
 11
464.3389926285
 21
327.5465115813
  0
LINE
  5
26E
100
AcDbEntity
  8
0
100
AcDbLine
 62
2
  6
CONTINUOUS
 10
462.0149554439
 20
327.7465115813
 11
464.0056592952
 21
327.7465115813
  0
LINE
  5
26F
100
AcDbEntity
  8
0
100
AcDbLine
 62
2
  6
CONTINUOUS
 10
462.0149554439
 20
327.9465115813
 11
463.6723259618
 21
327.9465115813
  0
LINE
  5
270
100
AcDbEntity
  8
0
100
AcDbLine
 62
2
  6
CONTINUOUS
 10
462.0149554439
 20
328.1465115813
 11
463.3389926285
 21
328.1465115813
  0
LINE
  5
271
100
AcDbEntity
  8
0
100
AcDbLine
 62
2
  6
CONTINUOUS
 10
462.0149554439
 20
328.3465115813
 11
463.0056592952
 21
328.3465115813
  0
LINE
  5
272
100
AcDbEntity
  8
0
100
AcDbLine
 62
2
  6
CONTINUOUS
 10
462.0149554439
 20
328.5465115813
 11
462.6723259618
 21
328.5465115813
  0
LINE
  5
273
100
AcDbEntity
  8
0
100
AcDbLine
 62
2
  6
CONTINUOUS
 10
462.0149554439
 20
328.7465115813
 11
462.3389926285
 21
328.7465115813
  0
ENDBLK
  5
274
100
AcDbEntity
  8
0
  6
BYBLOCK
 62
0
100
AcDbBlockEnd
  0
BLOCK
  5
275
100
AcDbEntity
  8
0
100
AcDbBlockBegin
 62
2
  6
CONTINUOUS
  2
SYMBOL_176_BL5
 70
64
 10
199.7471130814
 20
501.4977301962
  3
SYMBOL_176_BL5
  1

  0
TEXT
  5
276
100
AcDbEntity
  8
0
100
AcDbText
 62
5
  6
CONTINUOUS
 10
187.2137797481
 20
498.6977301962
  7
TEXTSTYLE_2
 40
5.6
  1
n
 41
1.0
 72
0
100
AcDbText
  0
TEXT
  5
277
100
AcDbEntity
  8
0
100
AcDbText
 62
5
  6
CONTINUOUS
 10
194.6804464148
 20
498.6977301962
  7
STANDARD
 40
5.6
  1
    
 41
0.7857142857
 72
0
100
AcDbText
  0
TEXT
  5
278
100
AcDbEntity
  8
0
100
AcDbText
 62
5
  6
CONTINUOUS
 10
173.3471130814
 20
499.0977301962
  7
TEXTSTYLE_2
 40
4.8
  1
j
 41
1.0
 72
0
100
AcDbText
  0
LINE
  5
279
100
AcDbEntity
  8
0
100
AcDbLine
 62
2
  6
CONTINUOUS
 10
170.7471130814
 20
508.4977301962
 11
170.7471130814
 21
494.4977301962
  0
LINE
  5
27A
100
AcDbEntity
  8
0
100
AcDbLine
 62
2
  6
CONTINUOUS
 10
170.7471130814
 20
494.4977301962
 11
214.7471130814
 21
494.4977301962
  0
LINE
  5
27B
100
AcDbEntity
  8
0
100
AcDbLine
 62
2
  6
CONTINUOUS
 10
228.7471130814
 20
494.4977301962
 11
228.7471130814
 21
508.4977301962
  0
LINE
  5
27C
100
AcDbEntity
  8
0
100
AcDbLine
 62
2
  6
CONTINUOUS
 10
214.7471130814
 20
508.4977301962
 11
170.7471130814
 21
508.4977301962
  0
LINE
  5
27D
100
AcDbEntity
  8
0
100
AcDbLine
 62
2
  6
CONTINUOUS
 10
184.7471130814
 20
508.4977301962
 11
184.7471130814
 21
494.4977301962
  0
LINE
  5
27E
100
AcDbEntity
  8
0
100
AcDbLine
 62
2
  6
CONTINUOUS
 10
214.7471130814
 20
508.4977301962
 11
214.7471130814
 21
494.4977301962
  0
LINE
  5
27F
100
AcDbEntity
  8
0
100
AcDbLine
 62
2
  6
CONTINUOUS
 10
214.7471130814
 20
508.4977301962
 11
228.7471130814
 21
508.4977301962
  0
LINE
  5
280
100
AcDbEntity
  8
0
100
AcDbLine
 62
2
  6
CONTINUOUS
 10
214.7471130814
 20
494.4977301962
 11
228.7471130814
 21
494.4977301962
  0
ENDBLK
  5
281
100
AcDbEntity
  8
0
  6
BYBLOCK
 62
0
100
AcDbBlockEnd
  0
BLOCK
  5
282
100
AcDbEntity
  8
0
100
AcDbBlockBegin
 62
2
  6
CONTINUOUS
  2
SYMBOL_173_BL4
 70
64
 10
213.1162527422
 20
303.4029301962
  3
SYMBOL_173_BL4
  1

  0
TEXT
  5
283
100
AcDbEntity
  8
0
100
AcDbText
 62
5
  6
CONTINUOUS
 10
202.7829194089
 20
300.6029301962
  7
TEXTSTYLE_2
 40
5.6
  1
n
 41
1.0
 72
0
100
AcDbText
  0
TEXT
  5
284
100
AcDbEntity
  8
0
100
AcDbText
 62
5
  6
CONTINUOUS
 10
210.2495860756
 20
300.6029301962
  7
STANDARD
 40
5.6
  1
   
 41
0.7857142857
 72
0
100
AcDbText
  0
TEXT
  5
285
100
AcDbEntity
  8
0
100
AcDbText
 62
5
  6
CONTINUOUS
 10
186.7162527422
 20
301.0029301962
  7
TEXTSTYLE_2
 40
4.8
  1
j
 41
1.0
 72
0
100
AcDbText
  0
LINE
  5
286
100
AcDbEntity
  8
0
100
AcDbLine
 62
2
  6
CONTINUOUS
 10
184.1162527422
 20
310.4029301962
 11
184.1162527422
 21
296.4029301962
  0
LINE
  5
287
100
AcDbEntity
  8
0
100
AcDbLine
 62
2
  6
CONTINUOUS
 10
184.1162527422
 20
296.4029301962
 11
228.1162527422
 21
296.4029301962
  0
LINE
  5
288
100
AcDbEntity
  8
0
100
AcDbLine
 62
2
  6
CONTINUOUS
 10
242.1162527422
 20
296.4029301962
 11
242.1162527422
 21
310.4029301962
  0
LINE
  5
289
100
AcDbEntity
  8
0
100
AcDbLine
 62
2
  6
CONTINUOUS
 10
228.1162527422
 20
310.4029301962
 11
184.1162527422
 21
310.4029301962
  0
LINE
  5
28A
100
AcDbEntity
  8
0
100
AcDbLine
 62
2
  6
CONTINUOUS
 10
198.1162527422
 20
310.4029301962
 11
198.1162527422
 21
296.4029301962
  0
LINE
  5
28B
100
AcDbEntity
  8
0
100
AcDbLine
 62
2
  6
CONTINUOUS
 10
228.1162527422
 20
310.4029301962
 11
228.1162527422
 21
296.4029301962
  0
LINE
  5
28C
100
AcDbEntity
  8
0
100
AcDbLine
 62
2
  6
CONTINUOUS
 10
228.1162527422
 20
310.4029301962
 11
242.1162527422
 21
310.4029301962
  0
LINE
  5
28D
100
AcDbEntity
  8
0
100
AcDbLine
 62
2
  6
CONTINUOUS
 10
228.1162527422
 20
296.4029301962
 11
242.1162527422
 21
296.4029301962
  0
ENDBLK
  5
28E
100
AcDbEntity
  8
0
  6
BYBLOCK
 62
0
100
AcDbBlockEnd
  0
BLOCK
  5
28F
100
AcDbEntity
  8
0
100
AcDbBlockBegin
 62
2
  6
CONTINUOUS
  2
SYMBOL_179_BL3
 70
64
 10
572.9378636016
 20
511.6599959229
  3
SYMBOL_179_BL3
  1

  0
LINE
  5
290
100
AcDbEntity
  8
0
100
AcDbLine
 62
2
  6
CONTINUOUS
 10
540.9378717895
 20
518.6641816651
 11
540.9378717895
 21
504.6641864074
  0
LINE
  5
291
100
AcDbEntity
  8
0
100
AcDbLine
 62
2
  6
CONTINUOUS
 10
540.9378717895
 20
504.6641864074
 11
584.9378568854
 21
504.6641864074
  0
LINE
  5
292
100
AcDbEntity
  8
0
100
AcDbLine
 62
2
  6
CONTINUOUS
 10
595.2216280754
 20
504.6262922193
 11
595.2216280754
 21
518.6936996264
  0
LINE
  5
293
100
AcDbEntity
  8
0
100
AcDbLine
 62
2
  6
CONTINUOUS
 10
584.9378568854
 20
518.6641816651
 11
540.9378717895
 21
518.6641816651
  0
LINE
  5
294
100
AcDbEntity
  8
0
100
AcDbLine
 62
2
  6
CONTINUOUS
 10
554.9378670473
 20
518.6641816651
 11
554.9378670473
 21
504.6641864074
  0
LINE
  5
295
100
AcDbEntity
  8
0
100
AcDbLine
 62
2
  6
CONTINUOUS
 10
584.9378568854
 20
518.6641816651
 11
584.9378568854
 21
504.6641864074
  0
LINE
  5
296
100
AcDbEntity
  8
0
100
AcDbLine
 62
2
  6
CONTINUOUS
 10
584.9378568854
 20
518.6641816651
 11
604.895610947
 21
518.6936996264
  0
LINE
  5
297
100
AcDbEntity
  8
0
100
AcDbLine
 62
2
  6
CONTINUOUS
 10
584.9139782035
 20
504.5840477526
 11
604.9378554137
 21
504.6262922193
  0
LINE
  5
298
100
AcDbEntity
  8
0
100
AcDbLine
 62
2
  6
CONTINUOUS
 10
604.895610947
 20
504.668536686
 11
604.895610947
 21
518.7359440931
  0
TEXT
  5
299
100
AcDbEntity
  8
0
100
AcDbText
 62
5
  6
CONTINUOUS
 10
543.8749480712
 20
509.6191663176
  7
TEXTSTYLE_2
 40
4.8000001536
  1
h
 41
1.0
 72
0
100
AcDbText
  0
ENDBLK
  5
29A
100
AcDbEntity
  8
0
  6
BYBLOCK
 62
0
100
AcDbBlockEnd
  0
BLOCK
  5
29B
100
AcDbEntity
  8
0
100
AcDbBlockBegin
 62
2
  6
CONTINUOUS
  2
SYMBOL_115_BL2
 70
64
 10
573.2031770342
 20
485.6599959229
  3
SYMBOL_115_BL2
  1

  0
LINE
  5
29C
100
AcDbEntity
  8
0
100
AcDbLine
 62
2
  6
CONTINUOUS
 10
541.2031852221
 20
492.6641816651
 11
541.2031852221
 21
478.6641864074
  0
LINE
  5
29D
100
AcDbEntity
  8
0
100
AcDbLine
 62
2
  6
CONTINUOUS
 10
541.2031852221
 20
478.6641864074
 11
585.203170318
 21
478.6641864074
  0
LINE
  5
29E
100
AcDbEntity
  8
0
100
AcDbLine
 62
2
  6
CONTINUOUS
 10
595.486941508
 20
478.6262922193
 11
595.486941508
 21
492.6936996264
  0
LINE
  5
29F
100
AcDbEntity
  8
0
100
AcDbLine
 62
2
  6
CONTINUOUS
 10
585.203170318
 20
492.6641816651
 11
541.2031852221
 21
492.6641816651
  0
LINE
  5
2A0
100
AcDbEntity
  8
0
100
AcDbLine
 62
2
  6
CONTINUOUS
 10
555.2031804799
 20
492.6641816651
 11
555.2031804799
 21
478.6641864074
  0
LINE
  5
2A1
100
AcDbEntity
  8
0
100
AcDbLine
 62
2
  6
CONTINUOUS
 10
585.203170318
 20
492.6641816651
 11
585.203170318
 21
478.6641864074
  0
LINE
  5
2A2
100
AcDbEntity
  8
0
100
AcDbLine
 62
2
  6
CONTINUOUS
 10
585.203170318
 20
492.6641816651
 11
605.1609243796
 21
492.6936996264
  0
LINE
  5
2A3
100
AcDbEntity
  8
0
100
AcDbLine
 62
2
  6
CONTINUOUS
 10
585.1792916361
 20
478.5840477526
 11
605.2031688463
 21
478.6262922193
  0
LINE
  5
2A4
100
AcDbEntity
  8
0
100
AcDbLine
 62
2
  6
CONTINUOUS
 10
605.1609243796
 20
478.668536686
 11
605.1609243796
 21
492.7359440931
  0
TEXT
  5
2A5
100
AcDbEntity
  8
0
100
AcDbText
 62
5
  6
CONTINUOUS
 10
544.1402615038
 20
483.6191663176
  7
TEXTSTYLE_2
 40
4.8000001536
  1
h
 41
1.0
 72
0
100
AcDbText
  0
ENDBLK
  5
2A6
100
AcDbEntity
  8
0
  6
BYBLOCK
 62
0
100
AcDbBlockEnd
  0
BLOCK
  5
2A7
100
AcDbEntity
  8
0
100
AcDbBlockBegin
 62
2
  6
CONTINUOUS
  2
SYMBOL_143_BL1
 70
64
 10
551.0149554439
 20
460.9491925953
  3
SYMBOL_143_BL1
  1

  0
LINE
  5
2A8
100
AcDbEntity
  8
0
100
AcDbLine
 62
2
  6
CONTINUOUS
 10
554.0205331331
 20
448.4491925953
 11
548.0205331331
 21
448.4491925953
  0
LINE
  5
2A9
100
AcDbEntity
  8
0
100
AcDbLine
 62
2
  6
CONTINUOUS
 10
544.0149554439
 20
473.4491925953
 11
558.0149554439
 21
473.4491925953
  0
LINE
  5
2AA
100
AcDbEntity
  8
0
100
AcDbLine
 62
2
  6
CONTINUOUS
 10
558.0149554439
 20
473.4491925953
 11
558.0149554439
 21
459.4491925953
  0
LINE
  5
2AB
100
AcDbEntity
  8
0
100
AcDbLine
 62
2
  6
CONTINUOUS
 10
558.0149554439
 20
459.4491925953
 11
544.0149554439
 21
459.4491925953
  0
LINE
  5
2AC
100
AcDbEntity
  8
0
100
AcDbLine
 62
2
  6
CONTINUOUS
 10
544.0149554439
 20
459.4491925953
 11
544.0149554439
 21
473.4491925953
  0
LINE
  5
2AD
100
AcDbEntity
  8
0
100
AcDbLine
 62
2
  6
CONTINUOUS
 10
548.0093777547
 20
448.4491925953
 11
551.0149554439
 21
453.4491925953
  0
LINE
  5
2AE
100
AcDbEntity
  8
0
100
AcDbLine
 62
2
  6
CONTINUOUS
 10
551.0149554439
 20
453.4491925953
 11
554.0093777547
 21
448.4491925953
  0
LINE
  5
2AF
100
AcDbEntity
  8
0
100
AcDbLine
 62
2
  6
CONTINUOUS
 10
551.0149554439
 20
453.4491925953
 11
551.0149554439
 21
459.4491925953
  0
LINE
  5
2B0
100
AcDbEntity
  8
0
100
AcDbLine
 62
2
  6
CONTINUOUS
 10
548.2149554439
 20
448.4491925953
 11
548.2149554439
 21
448.7911862327
  0
LINE
  5
2B1
100
AcDbEntity
  8
0
100
AcDbLine
 62
2
  6
CONTINUOUS
 10
548.4149554439
 20
448.4491925953
 11
548.4149554439
 21
449.1239009729
  0
LINE
  5
2B2
100
AcDbEntity
  8
0
100
AcDbLine
 62
2
  6
CONTINUOUS
 10
548.6149554439
 20
448.4491925953
 11
548.6149554439
 21
449.4566157131
  0
LINE
  5
2B3
100
AcDbEntity
  8
0
100
AcDbLine
 62
2
  6
CONTINUOUS
 10
548.8149554439
 20
448.4491925953
 11
548.8149554439
 21
449.7893304532
  0
LINE
  5
2B4
100
AcDbEntity
  8
0
100
AcDbLine
 62
2
  6
CONTINUOUS
 10
549.0149554439
 20
448.4491925953
 11
549.0149554439
 21
450.1220451934
  0
LINE
  5
2B5
100
AcDbEntity
  8
0
100
AcDbLine
 62
2
  6
CONTINUOUS
 10
549.2149554439
 20
448.4491925953
 11
549.2149554439
 21
450.4547599336
  0
LINE
  5
2B6
100
AcDbEntity
  8
0
100
AcDbLine
 62
2
  6
CONTINUOUS
 10
549.4149554439
 20
448.4491925953
 11
549.4149554439
 21
450.7874746738
  0
LINE
  5
2B7
100
AcDbEntity
  8
0
100
AcDbLine
 62
2
  6
CONTINUOUS
 10
549.6149554439
 20
448.4491925953
 11
549.6149554439
 21
451.120189414
  0
LINE
  5
2B8
100
AcDbEntity
  8
0
100
AcDbLine
 62
2
  6
CONTINUOUS
 10
549.8149554439
 20
448.4491925953
 11
549.8149554439
 21
451.4529041542
  0
LINE
  5
2B9
100
AcDbEntity
  8
0
100
AcDbLine
 62
2
  6
CONTINUOUS
 10
550.0149554439
 20
448.4491925953
 11
550.0149554439
 21
451.7856188944
  0
LINE
  5
2BA
100
AcDbEntity
  8
0
100
AcDbLine
 62
2
  6
CONTINUOUS
 10
550.2149554439
 20
448.4491925953
 11
550.2149554439
 21
452.1183336346
  0
LINE
  5
2BB
100
AcDbEntity
  8
0
100
AcDbLine
 62
2
  6
CONTINUOUS
 10
550.4149554439
 20
448.4491925953
 11
550.4149554439
 21
452.4510483748
  0
LINE
  5
2BC
100
AcDbEntity
  8
0
100
AcDbLine
 62
2
  6
CONTINUOUS
 10
550.6149554439
 20
448.4491925953
 11
550.6149554439
 21
452.783763115
  0
LINE
  5
2BD
100
AcDbEntity
  8
0
100
AcDbLine
 62
2
  6
CONTINUOUS
 10
550.8149554439
 20
448.4491925953
 11
550.8149554439
 21
453.1164778552
  0
LINE
  5
2BE
100
AcDbEntity
  8
0
100
AcDbLine
 62
2
  6
CONTINUOUS
 10
551.0149554439
 20
448.4491925953
 11
551.0149554439
 21
453.4491925953
  0
LINE
  5
2BF
100
AcDbEntity
  8
0
100
AcDbLine
 62
2
  6
CONTINUOUS
 10
551.2149554439
 20
448.4491925953
 11
551.2149554439
 21
453.1152383644
  0
LINE
  5
2C0
100
AcDbEntity
  8
0
100
AcDbLine
 62
2
  6
CONTINUOUS
 10
551.4149554439
 20
448.4491925953
 11
551.4149554439
 21
452.7812841334
  0
LINE
  5
2C1
100
AcDbEntity
  8
0
100
AcDbLine
 62
2
  6
CONTINUOUS
 10
551.6149554439
 20
448.4491925953
 11
551.6149554439
 21
452.4473299024
  0
LINE
  5
2C2
100
AcDbEntity
  8
0
100
AcDbLine
 62
2
  6
CONTINUOUS
 10
551.8149554439
 20
448.4491925953
 11
551.8149554439
 21
452.1133756715
  0
LINE
  5
2C3
100
AcDbEntity
  8
0
100
AcDbLine
 62
2
  6
CONTINUOUS
 10
552.0149554439
 20
448.4491925953
 11
552.0149554439
 21
451.7794214405
  0
LINE
  5
2C4
100
AcDbEntity
  8
0
100
AcDbLine
 62
2
  6
CONTINUOUS
 10
552.2149554439
 20
448.4491925953
 11
552.2149554439
 21
451.4454672095
  0
LINE
  5
2C5
100
AcDbEntity
  8
0
100
AcDbLine
 62
2
  6
CONTINUOUS
 10
552.4149554439
 20
448.4491925953
 11
552.4149554439
 21
451.1115129785
  0
LINE
  5
2C6
100
AcDbEntity
  8
0
100
AcDbLine
 62
2
  6
CONTINUOUS
 10
552.6149554439
 20
448.4491925953
 11
552.6149554439
 21
450.7775587476
  0
LINE
  5
2C7
100
AcDbEntity
  8
0
100
AcDbLine
 62
2
  6
CONTINUOUS
 10
552.8149554439
 20
448.4491925953
 11
552.8149554439
 21
450.4436045166
  0
LINE
  5
2C8
100
AcDbEntity
  8
0
100
AcDbLine
 62
2
  6
CONTINUOUS
 10
553.0149554439
 20
448.4491925953
 11
553.0149554439
 21
450.1096502856
  0
LINE
  5
2C9
100
AcDbEntity
  8
0
100
AcDbLine
 62
2
  6
CONTINUOUS
 10
553.2149554439
 20
448.4491925953
 11
553.2149554439
 21
449.7756960546
  0
LINE
  5
2CA
100
AcDbEntity
  8
0
100
AcDbLine
 62
2
  6
CONTINUOUS
 10
553.4149554439
 20
448.4491925953
 11
553.4149554439
 21
449.4417418237
  0
LINE
  5
2CB
100
AcDbEntity
  8
0
100
AcDbLine
 62
2
  6
CONTINUOUS
 10
553.6149554439
 20
448.4491925953
 11
553.6149554439
 21
449.1077875927
  0
LINE
  5
2CC
100
AcDbEntity
  8
0
100
AcDbLine
 62
2
  6
CONTINUOUS
 10
553.8149554439
 20
448.4491925953
 11
553.8149554439
 21
448.7738333617
  0
ENDBLK
  5
2CD
100
AcDbEntity
  8
0
  6
BYBLOCK
 62
0
100
AcDbBlockEnd
  0
BLOCK
  5
2CE
100
AcDbEntity
  8
0
100
AcDbBlockBegin
 62
2
  6
CONTINUOUS
  2
SYMBOL_152_BL0
 70
64
 10
552.53044384
 20
320.6599959229
  3
SYMBOL_152_BL0
  1

  0
LINE
  5
2CF
100
AcDbEntity
  8
0
100
AcDbLine
 62
2
  6
CONTINUOUS
 10
520.5304520279
 20
327.6641816651
 11
520.5304520279
 21
313.6641864074
  0
LINE
  5
2D0
100
AcDbEntity
  8
0
100
AcDbLine
 62
2
  6
CONTINUOUS
 10
520.5304520279
 20
313.6641864074
 11
564.5304371238
 21
313.6641864074
  0
LINE
  5
2D1
100
AcDbEntity
  8
0
100
AcDbLine
 62
2
  6
CONTINUOUS
 10
574.8142083138
 20
313.6262922193
 11
574.8142083138
 21
327.6936996264
  0
LINE
  5
2D2
100
AcDbEntity
  8
0
100
AcDbLine
 62
2
  6
CONTINUOUS
 10
564.5304371238
 20
327.6641816651
 11
520.5304520279
 21
327.6641816651
  0
LINE
  5
2D3
100
AcDbEntity
  8
0
100
AcDbLine
 62
2
  6
CONTINUOUS
 10
534.5304472857
 20
327.6641816651
 11
534.5304472857
 21
313.6641864074
  0
LINE
  5
2D4
100
AcDbEntity
  8
0
100
AcDbLine
 62
2
  6
CONTINUOUS
 10
564.5304371238
 20
327.6641816651
 11
564.5304371238
 21
313.6641864074
  0
LINE
  5
2D5
100
AcDbEntity
  8
0
100
AcDbLine
 62
2
  6
CONTINUOUS
 10
564.5304371238
 20
327.6641816651
 11
584.4881911854
 21
327.6936996264
  0
LINE
  5
2D6
100
AcDbEntity
  8
0
100
AcDbLine
 62
2
  6
CONTINUOUS
 10
564.5065584419
 20
313.5840477526
 11
584.5304356521
 21
313.6262922193
  0
LINE
  5
2D7
100
AcDbEntity
  8
0
100
AcDbLine
 62
2
  6
CONTINUOUS
 10
584.4881911854
 20
313.668536686
 11
584.4881911854
 21
327.7359440931
  0
TEXT
  5
2D8
100
AcDbEntity
  8
0
100
AcDbText
 62
5
  6
CONTINUOUS
 10
523.4675283097
 20
318.6191663176
  7
TEXTSTYLE_2
 40
4.8000001536
  1
h
 41
1.0
 72
0
100
AcDbText
  0
ENDBLK
  5
2D9
100
AcDbEntity
  8
0
  6
BYBLOCK
 62
0
100
AcDbBlockEnd
  0
BLOCK
  5
2DA
100
AcDbEntity
  8
0
100
AcDbBlockBegin
  2
_FILLED
 70
64
 10
0.0
 20
0.0
  3
_FILLED
  1

  0
SOLID
  5
2DB
100
AcDbEntity
  8
0
  6
BYBLOCK
 62
0
100
AcDbTrace
 10
0.0
 20
0.0
 11
-1.0
 21
0.125
 12
-1.0
 22
-0.125
 13
-1.0
 23
-0.125
  0
ENDBLK
  5
2DC
100
AcDbEntity
  8
0
  6
BYBLOCK
 62
0
100
AcDbBlockEnd
  0
BLOCK
  5
2DD
100
AcDbEntity
  8
0
100
AcDbBlockBegin
  2
_NONE
 70
64
 10
0.0
 20
0.0
  3
_NONE
  1

  0
ENDBLK
  5
2DE
100
AcDbEntity
  8
0
  6
BYBLOCK
 62
0
100
AcDbBlockEnd
  0
BLOCK
  5
2DF
100
AcDbEntity
  8
0
100
AcDbBlockBegin
 62
2
  6
CONTINUOUS
  2
*D0
 70
65
 10
0.0
 20
0.0
  3
*D0
  1

  0
MTEXT
  5
2E0
100
AcDbEntity
  8
0
100
AcDbMText
 62
5
  6
CONTINUOUS
  7
TEXTSTYLE_2
 71
2
 72
1
 10
514.7649582902
 20
388.3694501315
 30
0.0
 11
0.0009543697
 21
0.9999995446
 31
0.0
 44
0.9
  1
{\Fgdt;n}\Ftxt;40
 40
5.0
 41
14.5238095238
  0
LINE
  5
2E1
100
AcDbEntity
  8
0
100
AcDbLine
 62
2
  6
CONTINUOUS
 10
491.0149554439
 20
373.4434572662
 11
524.0006875366
 21
373.4119766682
  0
LINE
  5
2E2
100
AcDbEntity
  8
0
100
AcDbLine
 62
2
  6
CONTINUOUS
 10
491.0149554439
 20
413.4434754827
 11
524.0388623251
 21
413.4119584518
  0
LINE
  5
2E3
100
AcDbEntity
  8
0
100
AcDbLine
 62
2
  6
CONTINUOUS
 10
521.0006889028
 20
373.4148397774
 11
521.0197762971
 21
393.4148306692
  0
LINE
  5
2E4
100
AcDbEntity
  8
0
100
AcDbLine
 62
2
  6
CONTINUOUS
 10
521.0388636914
 20
413.4148215609
 11
521.0197762971
 21
393.4148306692
  0
INSERT
  5
2E5
100
AcDbEntity
  8
0
100
AcDbBlockReference
 62
2
  6
CONTINUOUS
  2
_FILLED
 10
521.0006889028
 20
373.4148397774
 41
7.0
 42
7.0
 43
7.0
 50
269.9453186351
  0
INSERT
  5
2E6
100
AcDbEntity
  8
0
100
AcDbBlockReference
 62
2
  6
CONTINUOUS
  2
_FILLED
 10
521.0388636914
 20
413.4148215609
 41
7.0
 42
7.0
 43
7.0
 50
89.9453186351
  0
ENDBLK
  5
2E7
100
AcDbEntity
  8
0
  6
BYBLOCK
 62
0
100
AcDbBlockEnd
  0
BLOCK
  5
2E8
100
AcDbEntity
  8
0
100
AcDbBlockBegin
 62
2
  6
CONTINUOUS
  2
*D1
 70
65
 10
0.0
 20
0.0
  3
*D1
  1

  0
MTEXT
  5
2E9
100
AcDbEntity
  8
0
100
AcDbMText
 62
5
  6
CONTINUOUS
  7
TEXTSTYLE_2
 71
2
 72
1
 10
544.7649554439
 20
389.4159729326
 30
0.0
 11
0.0
 21
1.0
 31
0.0
 44
0.9
  1
{\Fgdt;n}\Ftxt;110
 40
5.0
 41
16.3095238095
  0
LINE
  5
2EA
100
AcDbEntity
  8
0
100
AcDbLine
 62
2
  6
CONTINUOUS
 10
484.5149554439
 20
338.4491925953
 11
554.0149554439
 21
338.4491925953
  0
LINE
  5
2EB
100
AcDbEntity
  8
0
100
AcDbLine
 62
2
  6
CONTINUOUS
 10
484.5149554439
 20
448.4491925953
 11
554.0149554439
 21
448.4491925953
  0
LINE
  5
2EC
100
AcDbEntity
  8
0
100
AcDbLine
 62
2
  6
CONTINUOUS
 10
551.0149554439
 20
338.4491925953
 11
551.0149554439
 21
393.4491925953
  0
LINE
  5
2ED
100
AcDbEntity
  8
0
100
AcDbLine
 62
2
  6
CONTINUOUS
 10
551.0149554439
 20
448.4491925953
 11
551.0149554439
 21
393.4491925953
  0
INSERT
  5
2EE
100
AcDbEntity
  8
0
100
AcDbBlockReference
 62
2
  6
CONTINUOUS
  2
_FILLED
 10
551.0149554439
 20
338.4491925953
 41
7.0
 42
7.0
 43
7.0
 50
270.0
  0
INSERT
  5
2EF
100
AcDbEntity
  8
0
100
AcDbBlockReference
 62
2
  6
CONTINUOUS
  2
_FILLED
 10
551.0149554439
 20
448.4491925953
 41
7.0
 42
7.0
 43
7.0
 50
90.0
  0
ENDBLK
  5
2F0
100
AcDbEntity
  8
0
  6
BYBLOCK
 62
0
100
AcDbBlockEnd
  0
BLOCK
  5
2F1
100
AcDbEntity
  8
0
100
AcDbBlockBegin
 62
2
  6
CONTINUOUS
  2
*D2
 70
65
 10
0.0
 20
0.0
  3
*D2
  1

  0
MTEXT
  5
2F2
100
AcDbEntity
  8
0
100
AcDbMText
 62
5
  6
CONTINUOUS
  7
TEXTSTYLE_2
 71
2
 72
1
 10
529.7649554439
 20
388.127259601
 30
0.0
 11
0.0
 21
1.0
 31
0.0
 44
0.9
  1
{\Fgdt;n}\Ftxt;80
 40
5.0
 41
14.5238095238
  0
LINE
  5
2F3
100
AcDbEntity
  8
0
100
AcDbLine
 62
2
  6
CONTINUOUS
 10
491.9813562269
 20
353.4492095819
 11
539.0155651909
 21
353.4500366074
  0
LINE
  5
2F4
100
AcDbEntity
  8
0
100
AcDbLine
 62
2
  6
CONTINUOUS
 10
492.4117552433
 20
433.4492171621
 11
539.0141585118
 21
433.450036595
  0
LINE
  5
2F5
100
AcDbEntity
  8
0
100
AcDbLine
 62
2
  6
CONTINUOUS
 10
536.0155651914
 20
353.4499838569
 11
536.0148618518
 21
393.4499838507
  0
LINE
  5
2F6
100
AcDbEntity
  8
0
100
AcDbLine
 62
2
  6
CONTINUOUS
 10
536.0141585123
 20
433.4499838445
 11
536.0148618518
 21
393.4499838507
  0
INSERT
  5
2F7
100
AcDbEntity
  8
0
100
AcDbBlockReference
 62
2
  6
CONTINUOUS
  2
_FILLED
 10
536.0155651914
 20
353.4499838569
 41
7.0
 42
7.0
 43
7.0
 50
270.0010074597
  0
INSERT
  5
2F8
100
AcDbEntity
  8
0
100
AcDbBlockReference
 62
2
  6
CONTINUOUS
  2
_FILLED
 10
536.0141585123
 20
433.4499838445
 41
7.0
 42
7.0
 43
7.0
 50
90.0010074597
  0
ENDBLK
  5
2F9
100
AcDbEntity
  8
0
  6
BYBLOCK
 62
0
100
AcDbBlockEnd
  0
BLOCK
  5
2FA
100
AcDbEntity
  8
0
100
AcDbBlockBegin
 62
2
  6
CONTINUOUS
  2
*D3
 70
65
 10
0.0
 20
0.0
  3
*D3
  1

  0
MTEXT
  5
2FB
100
AcDbEntity
  8
0
100
AcDbMText
 62
5
  6
CONTINUOUS
  7
TEXTSTYLE_2
 71
3
 72
1
 10
443.7649554439
 20
314.9491925953
 30
0.0
 11
0.0
 21
1.0
 31
0.0
 44
0.9
  1
{\Fgdt;n}\Ftxt;145
 40
5.0
 41
17.0238095238
  0
LINE
  5
2FC
100
AcDbEntity
  8
0
100
AcDbLine
 62
2
  6
CONTINUOUS
 10
454.0149554439
 20
320.9491925953
 11
447.0149554439
 21
320.9491925953
  0
LINE
  5
2FD
100
AcDbEntity
  8
0
100
AcDbLine
 62
2
  6
CONTINUOUS
 10
454.0149554439
 20
465.9491925953
 11
447.0149554439
 21
465.9491925953
  0
LINE
  5
2FE
100
AcDbEntity
  8
0
100
AcDbLine
 62
2
  6
CONTINUOUS
 10
450.0149554439
 20
320.9491925953
 11
450.0149554439
 21
393.4491925953
  0
LINE
  5
2FF
100
AcDbEntity
  8
0
100
AcDbLine
 62
2
  6
CONTINUOUS
 10
450.0149554439
 20
393.4491925953
 11
450.0149554439
 21
297.9253830715
  0
LINE
  5
300
100
AcDbEntity
  8
0
100
AcDbLine
 62
2
  6
CONTINUOUS
 10
450.0149554439
 20
465.9491925953
 11
450.0149554439
 21
393.4491925953
  0
INSERT
  5
301
100
AcDbEntity
  8
0
100
AcDbBlockReference
 62
2
  6
CONTINUOUS
  2
_FILLED
 10
450.0149554439
 20
320.9491925953
 41
7.0
 42
7.0
 43
7.0
 50
270.0
  0
INSERT
  5
302
100
AcDbEntity
  8
0
100
AcDbBlockReference
 62
2
  6
CONTINUOUS
  2
_FILLED
 10
450.0149554439
 20
465.9491925953
 41
7.0
 42
7.0
 43
7.0
 50
90.0
  0
ENDBLK
  5
303
100
AcDbEntity
  8
0
  6
BYBLOCK
 62
0
100
AcDbBlockEnd
  0
BLOCK
  5
304
100
AcDbEntity
  8
0
100
AcDbBlockBegin
 62
2
  6
CONTINUOUS
  2
*D4
 70
65
 10
0.0
 20
0.0
  3
*D4
  1

  0
MTEXT
  5
305
100
AcDbEntity
  8
0
100
AcDbMText
 62
5
  6
CONTINUOUS
  7
TEXTSTYLE_2
 71
3
 72
1
 10
431.7649554439
 20
314.9491925953
 30
0.0
 11
0.0
 21
1.0
 31
0.0
 44
0.9
  1
{\Fgdt;n}\Ftxt;115
 40
5.0
 41
15.9523809524
  0
LINE
  5
306
100
AcDbEntity
  8
0
100
AcDbLine
 62
2
  6
CONTINUOUS
 10
450.0149554439
 20
335.9491925953
 11
435.0149554439
 21
335.9491925953
  0
LINE
  5
307
100
AcDbEntity
  8
0
100
AcDbLine
 62
2
  6
CONTINUOUS
 10
450.0149554439
 20
450.9491925953
 11
435.0149554439
 21
450.9491925953
  0
LINE
  5
308
100
AcDbEntity
  8
0
100
AcDbLine
 62
2
  6
CONTINUOUS
 10
438.0149554439
 20
335.9491925953
 11
438.0149554439
 21
393.4491925953
  0
LINE
  5
309
100
AcDbEntity
  8
0
100
AcDbLine
 62
2
  6
CONTINUOUS
 10
438.0149554439
 20
393.4491925953
 11
438.0149554439
 21
298.996811643
  0
LINE
  5
30A
100
AcDbEntity
  8
0
100
AcDbLine
 62
2
  6
CONTINUOUS
 10
438.0149554439
 20
450.9491925953
 11
438.0149554439
 21
393.4491925953
  0
INSERT
  5
30B
100
AcDbEntity
  8
0
100
AcDbBlockReference
 62
2
  6
CONTINUOUS
  2
_FILLED
 10
438.0149554439
 20
335.9491925953
 41
7.0
 42
7.0
 43
7.0
 50
270.0
  0
INSERT
  5
30C
100
AcDbEntity
  8
0
100
AcDbBlockReference
 62
2
  6
CONTINUOUS
  2
_FILLED
 10
438.0149554439
 20
450.9491925953
 41
7.0
 42
7.0
 43
7.0
 50
90.0
  0
ENDBLK
  5
30D
100
AcDbEntity
  8
0
  6
BYBLOCK
 62
0
100
AcDbBlockEnd
  0
BLOCK
  5
30E
100
AcDbEntity
  8
0
100
AcDbBlockBegin
 62
2
  6
CONTINUOUS
  2
*D5
 70
65
 10
0.0
 20
0.0
  3
*D5
  1

  0
MTEXT
  5
30F
100
AcDbEntity
  8
0
100
AcDbMText
 62
5
  6
CONTINUOUS
  7
STANDARD
 71
2
 72
1
 10
476.5149554439
 20
522.1991925953
 30
0.0
 11
1.0
 21
0.0
 31
0.0
 44
0.9
  1
29
 40
5.0
 41
7.8571428571
  0
LINE
  5
310
100
AcDbEntity
  8
0
100
AcDbLine
 62
2
  6
CONTINUOUS
 10
491.0149554439
 20
436.4491925953
 11
491.0149554439
 21
447.8346852792
  0
LINE
  5
311
100
AcDbEntity
  8
0
100
AcDbLine
 62
2
  6
CONTINUOUS
 10
491.0149554439
 20
461.8588010537
 11
491.0149554439
 21
518.9491925953
  0
LINE
  5
312
100
AcDbEntity
  8
0
100
AcDbLine
 62
2
  6
CONTINUOUS
 10
462.0149554439
 20
468.9491925953
 11
462.0149554439
 21
518.9491925953
  0
LINE
  5
313
100
AcDbEntity
  8
0
100
AcDbLine
 62
2
  6
CONTINUOUS
 10
491.0149554439
 20
515.9491925953
 11
476.5149554439
 21
515.9491925953
  0
LINE
  5
314
100
AcDbEntity
  8
0
100
AcDbLine
 62
2
  6
CONTINUOUS
 10
462.0149554439
 20
515.9491925953
 11
476.5149554439
 21
515.9491925953
  0
INSERT
  5
315
100
AcDbEntity
  8
0
100
AcDbBlockReference
 62
2
  6
CONTINUOUS
  2
_FILLED
 10
491.0149554439
 20
515.9491925953
 41
7.0
 42
7.0
 43
7.0
  0
INSERT
  5
316
100
AcDbEntity
  8
0
100
AcDbBlockReference
 62
2
  6
CONTINUOUS
  2
_FILLED
 10
462.0149554439
 20
515.9491925953
 41
7.0
 42
7.0
 43
7.0
 50
180.0
  0
ENDBLK
  5
317
100
AcDbEntity
  8
0
  6
BYBLOCK
 62
0
100
AcDbBlockEnd
  0
BLOCK
  5
318
100
AcDbEntity
  8
0
100
AcDbBlockBegin
 62
2
  6
CONTINUOUS
  2
*D6
 70
65
 10
0.0
 20
0.0
  3
*D6
  1

  0
MTEXT
  5
319
100
AcDbEntity
  8
0
100
AcDbMText
 62
5
  6
CONTINUOUS
  7
STANDARD
 71
3
 72
1
 10
441.458236856
 20
482.1991925953
 30
0.0
 11
1.0
 21
0.0
 31
0.0
 44
0.9
  1
8
 40
5.0
 41
3.9285714286
  0
LINE
  5
31A
100
AcDbEntity
  8
0
100
AcDbLine
 62
2
  6
CONTINUOUS
 10
462.0149554439
 20
468.9491925953
 11
462.0149554439
 21
478.9491925953
  0
LINE
  5
31B
100
AcDbEntity
  8
0
100
AcDbLine
 62
2
  6
CONTINUOUS
 10
454.0149554439
 20
468.9491925953
 11
454.0149554439
 21
478.9491925953
  0
LINE
  5
31C
100
AcDbEntity
  8
0
100
AcDbLine
 62
2
  6
CONTINUOUS
 10
462.0149554439
 20
475.9491925953
 11
474.0149554439
 21
475.9491925953
  0
LINE
  5
31D
100
AcDbEntity
  8
0
100
AcDbLine
 62
2
  6
CONTINUOUS
 10
474.0149554439
 20
475.9491925953
 11
458.0149554439
 21
475.9491925953
  0
LINE
  5
31E
100
AcDbEntity
  8
0
100
AcDbLine
 62
2
  6
CONTINUOUS
 10
454.0149554439
 20
475.9491925953
 11
437.5296654274
 21
475.9491925953
  0
LINE
  5
31F
100
AcDbEntity
  8
0
100
AcDbLine
 62
2
  6
CONTINUOUS
 10
437.5296654274
 20
475.9491925953
 11
458.0149554439
 21
475.9491925953
  0
INSERT
  5
320
100
AcDbEntity
  8
0
100
AcDbBlockReference
 62
2
  6
CONTINUOUS
  2
_FILLED
 10
462.0149554439
 20
475.9491925953
 41
7.0
 42
7.0
 43
7.0
 50
180.0
  0
INSERT
  5
321
100
AcDbEntity
  8
0
100
AcDbBlockReference
 62
2
  6
CONTINUOUS
  2
_FILLED
 10
454.0149554439
 20
475.9491925953
 41
7.0
 42
7.0
 43
7.0
  0
ENDBLK
  5
322
100
AcDbEntity
  8
0
  6
BYBLOCK
 62
0
100
AcDbBlockEnd
  0
BLOCK
  5
323
100
AcDbEntity
  8
0
100
AcDbBlockBegin
 62
2
  6
CONTINUOUS
  2
*D7
 70
65
 10
0.0
 20
0.0
  3
*D7
  1

  0
MTEXT
  5
324
100
AcDbEntity
  8
0
100
AcDbMText
 62
5
  6
CONTINUOUS
  7
STANDARD
 71
3
 72
1
 10
446.7650876325
 20
492.1991925953
 30
0.0
 11
1.0
 21
0.0
 31
0.0
 44
0.9
  1
12
 40
5.0
 41
6.7857142857
  0
LINE
  5
325
100
AcDbEntity
  8
0
100
AcDbLine
 62
2
  6
CONTINUOUS
 10
474.0149554439
 20
451.4491925953
 11
474.0149554439
 21
488.9491925953
  0
LINE
  5
326
100
AcDbEntity
  8
0
100
AcDbLine
 62
2
  6
CONTINUOUS
 10
462.0149554439
 20
451.4491925953
 11
462.0149554439
 21
488.9491925953
  0
LINE
  5
327
100
AcDbEntity
  8
0
100
AcDbLine
 62
2
  6
CONTINUOUS
 10
474.0149554439
 20
485.9491925953
 11
486.0149554439
 21
485.9491925953
  0
LINE
  5
328
100
AcDbEntity
  8
0
100
AcDbLine
 62
2
  6
CONTINUOUS
 10
486.0149554439
 20
485.9491925953
 11
468.0149554439
 21
485.9491925953
  0
LINE
  5
329
100
AcDbEntity
  8
0
100
AcDbLine
 62
2
  6
CONTINUOUS
 10
462.0149554439
 20
485.9491925953
 11
439.9793733468
 21
485.9491925953
  0
LINE
  5
32A
100
AcDbEntity
  8
0
100
AcDbLine
 62
2
  6
CONTINUOUS
 10
439.9793733468
 20
485.9491925953
 11
468.0149554439
 21
485.9491925953
  0
INSERT
  5
32B
100
AcDbEntity
  8
0
100
AcDbBlockReference
 62
2
  6
CONTINUOUS
  2
_FILLED
 10
474.0149554439
 20
485.9491925953
 41
7.0
 42
7.0
 43
7.0
 50
180.0
  0
INSERT
  5
32C
100
AcDbEntity
  8
0
100
AcDbBlockReference
 62
2
  6
CONTINUOUS
  2
_FILLED
 10
462.0149554439
 20
485.9491925953
 41
7.0
 42
7.0
 43
7.0
  0
ENDBLK
  5
32D
100
AcDbEntity
  8
0
  6
BYBLOCK
 62
0
100
AcDbBlockEnd
  0
BLOCK
  5
32E
100
AcDbEntity
  8
0
100
AcDbBlockBegin
 62
2
  6
CONTINUOUS
  2
*D8
 70
65
 10
0.0
 20
0.0
  3
*D8
  1

  0
MTEXT
  5
32F
100
AcDbEntity
  8
0
100
AcDbMText
 62
5
  6
CONTINUOUS
  7
STANDARD
 71
2
 72
1
 10
494.4944675163
 20
439.3042157069
 30
0.0
 11
0.4077377417
 21
0.9130990822
 31
0.0
 44
0.9
  1
5\Fgdt;{\Fgdt;~}
 40
5.0
 41
6.9047619048
  0
LINE
  5
330
100
AcDbEntity
  8
0
100
AcDbLine
 62
2
  6
CONTINUOUS
 10
484.5149554439
 20
448.4491925953
 11
511.9435313464
 21
448.4491925953
  0
LINE
  5
331
100
AcDbEntity
  8
0
100
AcDbLine
 62
2
  6
CONTINUOUS
 10
484.5149554439
 20
447.5305616283
 11
511.7992016642
 21
445.1434993912
  0
ARC
  5
332
100
AcDbEntity
  8
0
100
AcDbCircle
 62
2
  6
CONTINUOUS
 10
474.0149554439
 20
448.4491925953
 40
34.9285759025
100
AcDbArc
 50
360.0
 51
19.684437066
  0
ARC
  5
333
100
AcDbEntity
  8
0
100
AcDbCircle
 62
2
  6
CONTINUOUS
 10
474.0149554439
 20
448.4491925953
 40
34.9285759025
100
AcDbArc
 50
335.9371977195
 51
355.0
  0
ARC
  5
334
100
AcDbEntity
  8
0
100
AcDbCircle
 62
2
  6
CONTINUOUS
 10
474.0149554439
 20
448.4491925953
 40
34.9285759025
100
AcDbArc
 50
355.0
 51
0.0
  0
SOLID
  5
335
100
AcDbEntity
  8
0
100
AcDbTrace
 62
2
  6
CONTINUOUS
 10
507.3726624289
 20
455.3265464356
 11
508.9435313464
 21
448.4491925953
 12
509.1138839563
 22
455.5016109741
 13
509.1138839563
 23
455.5016109741
  0
SOLID
  5
336
100
AcDbEntity
  8
0
100
AcDbTrace
 62
2
  6
CONTINUOUS
 10
508.3656631746
 20
438.3645376136
 11
508.8106175699
 21
445.4049666194
 12
506.6463254008
 22
438.6906934342
 13
506.6463254008
 23
438.6906934342
  0
ENDBLK
  5
337
100
AcDbEntity
  8
0
  6
BYBLOCK
 62
0
100
AcDbBlockEnd
  0
BLOCK
  5
338
100
AcDbEntity
  8
0
100
AcDbBlockBegin
 62
2
  6
CONTINUOUS
  2
*D9
 70
65
 10
0.0
 20
0.0
  3
*D9
  1

  0
MTEXT
  5
339
100
AcDbEntity
  8
0
100
AcDbMText
 62
5
  6
CONTINUOUS
  7
STANDARD
 71
1
 72
1
 10
503.065681313
 20
497.1991925953
 30
0.0
 11
1.0
 21
0.0
 31
0.0
 44
0.9
  1
6
 40
5.0
 41
3.9285714286
  0
LINE
  5
33A
100
AcDbEntity
  8
0
100
AcDbLine
 62
2
  6
CONTINUOUS
 10
491.0149554439
 20
435.8856515515
 11
491.0149554439
 21
449.4676589606
  0
LINE
  5
33B
100
AcDbEntity
  8
0
100
AcDbLine
 62
2
  6
CONTINUOUS
 10
491.0149554439
 20
461.1973881469
 11
491.0149554439
 21
493.9491925953
  0
LINE
  5
33C
100
AcDbEntity
  8
0
100
AcDbLine
 62
2
  6
CONTINUOUS
 10
485.0149554439
 20
435.6658463314
 11
485.0149554439
 21
493.9491925953
  0
LINE
  5
33D
100
AcDbEntity
  8
0
100
AcDbLine
 62
2
  6
CONTINUOUS
 10
491.0149554439
 20
490.9491925953
 11
506.9942527415
 21
490.9491925953
  0
LINE
  5
33E
100
AcDbEntity
  8
0
100
AcDbLine
 62
2
  6
CONTINUOUS
 10
506.9942527415
 20
490.9491925953
 11
488.0149554439
 21
490.9491925953
  0
LINE
  5
33F
100
AcDbEntity
  8
0
100
AcDbLine
 62
2
  6
CONTINUOUS
 10
485.0149554439
 20
490.9491925953
 11
473.0149554439
 21
490.9491925953
  0
LINE
  5
340
100
AcDbEntity
  8
0
100
AcDbLine
 62
2
  6
CONTINUOUS
 10
473.0149554439
 20
490.9491925953
 11
488.0149554439
 21
490.9491925953
  0
INSERT
  5
341
100
AcDbEntity
  8
0
100
AcDbBlockReference
 62
2
  6
CONTINUOUS
  2
_FILLED
 10
491.0149554439
 20
490.9491925953
 41
7.0
 42
7.0
 43
7.0
 50
180.0
  0
INSERT
  5
342
100
AcDbEntity
  8
0
100
AcDbBlockReference
 62
2
  6
CONTINUOUS
  2
_FILLED
 10
485.0149554439
 20
490.9491925953
 41
7.0
 42
7.0
 43
7.0
  0
ENDBLK
  5
343
100
AcDbEntity
  8
0
  6
BYBLOCK
 62
0
100
AcDbBlockEnd
  0
BLOCK
  5
344
100
AcDbEntity
  8
0
100
AcDbBlockBegin
 62
2
  6
CONTINUOUS
  2
*D10
 70
65
 10
0.0
 20
0.0
  3
*D10
  1

  0
MTEXT
  5
345
100
AcDbEntity
  8
0
100
AcDbMText
 62
5
  6
CONTINUOUS
  7
STANDARD
 71
1
 72
1
 10
503.1341761807
 20
387.7545071331
 30
0.0
 11
1.0
 21
0.0
 31
0.0
 44
0.9
  1
6
 40
5.0
 41
3.9285714286
  0
LINE
  5
346
100
AcDbEntity
  8
0
100
AcDbLine
 62
2
  6
CONTINUOUS
 10
491.0149554439
 20
382.9289850549
 11
491.0149554439
 21
378.5045071331
  0
LINE
  5
347
100
AcDbEntity
  8
0
100
AcDbLine
 62
2
  6
CONTINUOUS
 10
485.0149554439
 20
382.9247339565
 11
485.0149554439
 21
378.5045071331
  0
LINE
  5
348
100
AcDbEntity
  8
0
100
AcDbLine
 62
2
  6
CONTINUOUS
 10
491.0149554439
 20
381.5045071331
 11
507.0627476093
 21
381.5045071331
  0
LINE
  5
349
100
AcDbEntity
  8
0
100
AcDbLine
 62
2
  6
CONTINUOUS
 10
507.0627476093
 20
381.5045071331
 11
488.0149554439
 21
381.5045071331
  0
LINE
  5
34A
100
AcDbEntity
  8
0
100
AcDbLine
 62
2
  6
CONTINUOUS
 10
485.0149554439
 20
381.5045071331
 11
473.0149554439
 21
381.5045071331
  0
LINE
  5
34B
100
AcDbEntity
  8
0
100
AcDbLine
 62
2
  6
CONTINUOUS
 10
473.0149554439
 20
381.5045071331
 11
488.0149554439
 21
381.5045071331
  0
INSERT
  5
34C
100
AcDbEntity
  8
0
100
AcDbBlockReference
 62
2
  6
CONTINUOUS
  2
_FILLED
 10
491.0149554439
 20
381.5045071331
 41
7.0
 42
7.0
 43
7.0
 50
180.0
  0
INSERT
  5
34D
100
AcDbEntity
  8
0
100
AcDbBlockReference
 62
2
  6
CONTINUOUS
  2
_FILLED
 10
485.0149554439
 20
381.5045071331
 41
7.0
 42
7.0
 43
7.0
  0
ENDBLK
  5
34E
100
AcDbEntity
  8
0
  6
BYBLOCK
 62
0
100
AcDbBlockEnd
  0
BLOCK
  5
34F
100
AcDbEntity
  8
0
100
AcDbBlockBegin
 62
2
  6
CONTINUOUS
  2
*D11
 70
65
 10
0.0
 20
0.0
  3
*D11
  1

  0
MTEXT
  5
350
100
AcDbEntity
  8
0
100
AcDbMText
 62
5
  6
CONTINUOUS
  7
STANDARD
 71
2
 72
1
 10
473.8902374627
 20
507.1991925953
 30
0.0
 11
1.0
 21
0.0
 31
0.0
 44
0.9
  1
22.5
 40
5.0
 41
14.2857142857
  0
LINE
  5
351
100
AcDbEntity
  8
0
100
AcDbLine
 62
2
  6
CONTINUOUS
 10
484.5149554439
 20
450.5305616283
 11
484.5149554439
 21
503.9491925953
  0
LINE
  5
352
100
AcDbEntity
  8
0
100
AcDbLine
 62
2
  6
CONTINUOUS
 10
462.0149554439
 20
468.9491925953
 11
462.0149554439
 21
503.9491925953
  0
LINE
  5
353
100
AcDbEntity
  8
0
100
AcDbLine
 62
2
  6
CONTINUOUS
 10
484.5149554439
 20
500.9491925953
 11
473.2649554439
 21
500.9491925953
  0
LINE
  5
354
100
AcDbEntity
  8
0
100
AcDbLine
 62
2
  6
CONTINUOUS
 10
462.0149554439
 20
500.9491925953
 11
473.2649554439
 21
500.9491925953
  0
INSERT
  5
355
100
AcDbEntity
  8
0
100
AcDbBlockReference
 62
2
  6
CONTINUOUS
  2
_FILLED
 10
484.5149554439
 20
500.9491925953
 41
7.0
 42
7.0
 43
7.0
  0
INSERT
  5
356
100
AcDbEntity
  8
0
100
AcDbBlockReference
 62
2
  6
CONTINUOUS
  2
_FILLED
 10
462.0149554439
 20
500.9491925953
 41
7.0
 42
7.0
 43
7.0
 50
180.0
  0
ENDBLK
  5
357
100
AcDbEntity
  8
0
  6
BYBLOCK
 62
0
100
AcDbBlockEnd
  0
BLOCK
  5
358
100
AcDbEntity
  8
0
100
AcDbBlockBegin
 62
2
  6
CONTINUOUS
  2
*D12
 70
65
 10
0.0
 20
0.0
  3
*D12
  1

  0
MTEXT
  5
359
100
AcDbEntity
  8
0
100
AcDbMText
 62
5
  6
CONTINUOUS
  7
TEXTSTYLE_2
 71
3
 72
1
 10
296.7649649201
 20
374.1045814476
 30
0.0
 11
0.001741376
 21
0.9999984838
 31
0.0
 44
0.9
  1
{\Fgdt;n}\Ftxt;19
 40
5.0
 41
13.4523809524
  0
LINE
  5
35A
100
AcDbEntity
  8
0
100
AcDbLine
 62
2
  6
CONTINUOUS
 10
362.9984169204
 20
383.9544311273
 11
300.0323131041
 21
384.0640789564
  0
LINE
  5
35B
100
AcDbEntity
  8
0
100
AcDbLine
 62
2
  6
CONTINUOUS
 10
363.0315030646
 20
402.9544023195
 11
300.0653992484
 21
403.0640501487
  0
LINE
  5
35C
100
AcDbEntity
  8
0
100
AcDbLine
 62
2
  6
CONTINUOUS
 10
303.0323085556
 20
384.0588548284
 11
302.9915297904
 21
360.6413372916
  0
LINE
  5
35D
100
AcDbEntity
  8
0
100
AcDbLine
 62
2
  6
CONTINUOUS
 10
302.9915297904
 20
360.6413372916
 11
303.0488516277
 21
393.5588404245
  0
LINE
  5
35E
100
AcDbEntity
  8
0
100
AcDbLine
 62
2
  6
CONTINUOUS
 10
303.0653946998
 20
403.0588260206
 11
303.086291212
 21
415.0588078263
  0
LINE
  5
35F
100
AcDbEntity
  8
0
100
AcDbLine
 62
2
  6
CONTINUOUS
 10
303.086291212
 20
415.0588078263
 11
303.0488516277
 21
393.5588404245
  0
INSERT
  5
360
100
AcDbEntity
  8
0
100
AcDbBlockReference
 62
2
  6
CONTINUOUS
  2
_FILLED
 10
303.0323085556
 20
384.0588548284
 41
7.0
 42
7.0
 43
7.0
 50
89.9002264534
  0
INSERT
  5
361
100
AcDbEntity
  8
0
100
AcDbBlockReference
 62
2
  6
CONTINUOUS
  2
_FILLED
 10
303.0653946998
 20
403.0588260206
 41
7.0
 42
7.0
 43
7.0
 50
269.9002264534
  0
ENDBLK
  5
362
100
AcDbEntity
  8
0
  6
BYBLOCK
 62
0
100
AcDbBlockEnd
  0
BLOCK
  5
363
100
AcDbEntity
  8
0
100
AcDbBlockBegin
 62
2
  6
CONTINUOUS
  2
*D13
 70
65
 10
0.0
 20
0.0
  3
*D13
  1

  0
MTEXT
  5
364
100
AcDbEntity
  8
0
100
AcDbMText
 62
5
  6
CONTINUOUS
  7
STANDARD
 71
2
 72
1
 10
359.7649554439
 20
464.6991925953
 30
0.0
 11
1.0
 21
0.0
 31
0.0
 44
0.9
  1
53.5
 40
5.0
 41
13.5714285714
  0
LINE
  5
365
100
AcDbEntity
  8
0
100
AcDbLine
 62
2
  6
CONTINUOUS
 10
386.5149554439
 20
441.4491925953
 11
386.5149554439
 21
461.4491925953
  0
LINE
  5
366
100
AcDbEntity
  8
0
100
AcDbLine
 62
2
  6
CONTINUOUS
 10
333.0149554439
 20
441.4491925953
 11
333.0149554439
 21
461.4491925953
  0
LINE
  5
367
100
AcDbEntity
  8
0
100
AcDbLine
 62
2
  6
CONTINUOUS
 10
386.5149554439
 20
458.4491925953
 11
359.7649554439
 21
458.4491925953
  0
LINE
  5
368
100
AcDbEntity
  8
0
100
AcDbLine
 62
2
  6
CONTINUOUS
 10
333.0149554439
 20
458.4491925953
 11
359.7649554439
 21
458.4491925953
  0
INSERT
  5
369
100
AcDbEntity
  8
0
100
AcDbBlockReference
 62
2
  6
CONTINUOUS
  2
_FILLED
 10
386.5149554439
 20
458.4491925953
 41
7.0
 42
7.0
 43
7.0
  0
INSERT
  5
36A
100
AcDbEntity
  8
0
100
AcDbBlockReference
 62
2
  6
CONTINUOUS
  2
_FILLED
 10
333.0149554439
 20
458.4491925953
 41
7.0
 42
7.0
 43
7.0
 50
180.0
  0
ENDBLK
  5
36B
100
AcDbEntity
  8
0
  6
BYBLOCK
 62
0
100
AcDbBlockEnd
  0
BLOCK
  5
36C
100
AcDbEntity
  8
0
100
AcDbBlockBegin
 62
2
  6
CONTINUOUS
  2
*D14
 70
65
 10
0.0
 20
0.0
  3
*D14
  1

  0
MTEXT
  5
36D
100
AcDbEntity
  8
0
100
AcDbMText
 62
5
  6
CONTINUOUS
  7
STANDARD
 71
3
 72
1
 10
321.3966612205
 20
344.6991925953
 30
0.0
 11
1.0
 21
0.0
 31
0.0
 44
0.9
  1
3.95
 40
5.0
 41
13.9285714286
  0
LINE
  5
36E
100
AcDbEntity
  8
0
100
AcDbLine
 62
2
  6
CONTINUOUS
 10
333.0149554439
 20
346.9201650767
 11
333.0149554439
 21
335.4491925953
  0
LINE
  5
36F
100
AcDbEntity
  8
0
100
AcDbLine
 62
2
  6
CONTINUOUS
 10
336.9649554439
 20
346.9201650767
 11
336.9649554439
 21
335.4491925953
  0
LINE
  5
370
100
AcDbEntity
  8
0
100
AcDbLine
 62
2
  6
CONTINUOUS
 10
333.0149554439
 20
338.4491925953
 11
307.468089792
 21
338.4491925953
  0
LINE
  5
371
100
AcDbEntity
  8
0
100
AcDbLine
 62
2
  6
CONTINUOUS
 10
307.468089792
 20
338.4491925953
 11
334.9899554439
 21
338.4491925953
  0
LINE
  5
372
100
AcDbEntity
  8
0
100
AcDbLine
 62
2
  6
CONTINUOUS
 10
336.9649554439
 20
338.4491925953
 11
348.9649554439
 21
338.4491925953
  0
LINE
  5
373
100
AcDbEntity
  8
0
100
AcDbLine
 62
2
  6
CONTINUOUS
 10
348.9649554439
 20
338.4491925953
 11
334.9899554439
 21
338.4491925953
  0
INSERT
  5
374
100
AcDbEntity
  8
0
100
AcDbBlockReference
 62
2
  6
CONTINUOUS
  2
_FILLED
 10
333.0149554439
 20
338.4491925953
 41
7.0
 42
7.0
 43
7.0
  0
INSERT
  5
375
100
AcDbEntity
  8
0
100
AcDbBlockReference
 62
2
  6
CONTINUOUS
  2
_FILLED
 10
336.9649554439
 20
338.4491925953
 41
7.0
 42
7.0
 43
7.0
 50
180.0
  0
ENDBLK
  5
376
100
AcDbEntity
  8
0
  6
BYBLOCK
 62
0
100
AcDbBlockEnd
  0
BLOCK
  5
377
100
AcDbEntity
  8
0
100
AcDbBlockBegin
 62
2
  6
CONTINUOUS
  2
*D15
 70
65
 10
0.0
 20
0.0
  3
*D15
  1

  0
MTEXT
  5
378
100
AcDbEntity
  8
0
100
AcDbMText
 62
5
  6
CONTINUOUS
  7
TEXTSTYLE_2
 71
2
 72
1
 10
276.7649554439
 20
392.5780298726
 30
0.0
 11
0.0
 21
1.0
 31
0.0
 44
0.9
  1
{\Fgdt;n}\Ftxt;80
 40
5.0
 41
14.5238095238
  0
LINE
  5
379
100
AcDbEntity
  8
0
100
AcDbLine
 62
2
  6
CONTINUOUS
 10
330.0149554439
 20
433.4491925953
 11
280.0149554439
 21
433.4491925953
  0
LINE
  5
37A
100
AcDbEntity
  8
0
100
AcDbLine
 62
2
  6
CONTINUOUS
 10
330.0149554439
 20
353.4491925953
 11
280.0149554439
 21
353.4491925953
  0
LINE
  5
37B
100
AcDbEntity
  8
0
100
AcDbLine
 62
2
  6
CONTINUOUS
 10
283.0149554439
 20
433.4491925953
 11
283.0149554439
 21
393.4491925953
  0
LINE
  5
37C
100
AcDbEntity
  8
0
100
AcDbLine
 62
2
  6
CONTINUOUS
 10
283.0149554439
 20
353.4491925953
 11
283.0149554439
 21
393.4491925953
  0
INSERT
  5
37D
100
AcDbEntity
  8
0
100
AcDbBlockReference
 62
2
  6
CONTINUOUS
  2
_FILLED
 10
283.0149554439
 20
433.4491925953
 41
7.0
 42
7.0
 43
7.0
 50
90.0
  0
INSERT
  5
37E
100
AcDbEntity
  8
0
100
AcDbBlockReference
 62
2
  6
CONTINUOUS
  2
_FILLED
 10
283.0149554439
 20
353.4491925953
 41
7.0
 42
7.0
 43
7.0
 50
270.0
  0
ENDBLK
  5
37F
100
AcDbEntity
  8
0
  6
BYBLOCK
 62
0
100
AcDbBlockEnd
  0
BLOCK
  5
380
100
AcDbEntity
  8
0
100
AcDbBlockBegin
 62
2
  6
CONTINUOUS
  2
*D16
 70
65
 10
0.0
 20
0.0
  3
*D16
  1

  0
MTEXT
  5
381
100
AcDbEntity
  8
0
100
AcDbMText
 62
5
  6
CONTINUOUS
  7
STANDARD
 71
3
 72
1
 10
650.7860257781
 20
430.580680253
 30
0.0
 11
0.9214443132
 21
-0.3885104601
 31
0.0
 44
0.9
  1
     \Fgdt;{\Fgdt;n}\Ftxt;100
 40
5.0
 41
37.0238095238
  0
LINE
  5
382
100
AcDbEntity
  8
0
100
AcDbLine
 62
2
  6
CONTINUOUS
 10
676.6928197403
 20
412.8747155988
 11
722.7650354027
 21
393.4491925953
  0
LINE
  5
383
100
AcDbEntity
  8
0
100
AcDbLine
 62
2
  6
CONTINUOUS
 10
722.7650354027
 20
393.4491925953
 11
614.2424566622
 21
439.2057905669
  0
LINE
  5
384
100
AcDbEntity
  8
0
100
AcDbLine
 62
2
  6
CONTINUOUS
 10
768.837251065
 20
374.0236695919
 11
722.7650354027
 21
393.4491925953
  0
INSERT
  5
385
100
AcDbEntity
  8
0
100
AcDbBlockReference
 62
2
  6
CONTINUOUS
  2
_FILLED
 10
676.6928197403
 20
412.8747155988
 41
7.0
 42
7.0
 43
7.0
 50
157.138152419
  0
INSERT
  5
386
100
AcDbEntity
  8
0
100
AcDbBlockReference
 62
2
  6
CONTINUOUS
  2
_FILLED
 10
768.837251065
 20
374.0236695919
 41
7.0
 42
7.0
 43
7.0
 50
337.138152419
  0
ENDBLK
  5
387
100
AcDbEntity
  8
0
  6
BYBLOCK
 62
0
100
AcDbBlockEnd
  0
BLOCK
  5
388
100
AcDbEntity
  8
0
100
AcDbBlockBegin
 62
2
  6
CONTINUOUS
  2
*D17
 70
65
 10
0.0
 20
0.0
  3
*D17
  1

  0
MTEXT
  5
389
100
AcDbEntity
  8
0
100
AcDbMText
 62
5
  6
CONTINUOUS
  7
STANDARD
 71
3
 72
1
 10
703.6829830676
 20
478.8991925953
 30
0.0
 11
1.0
 21
0.0
 31
0.0
 44
0.9
  1
M6
 40
5.0
 41
8.2142857143
  0
LINE
  5
38A
100
AcDbEntity
  8
0
100
AcDbLine
 62
2
  6
CONTINUOUS
 10
755.1204796128
 20
429.5213914185
 11
755.1272467282
 21
475.6416443329
  0
LINE
  5
38B
100
AcDbEntity
  8
0
100
AcDbLine
 62
2
  6
CONTINUOUS
 10
761.1204799058
 20
429.5229478325
 11
761.1272466636
 21
475.6407639671
  0
LINE
  5
38C
100
AcDbEntity
  8
0
100
AcDbLine
 62
2
  6
CONTINUOUS
 10
755.1268065453
 20
472.6416443651
 11
695.4686973533
 21
472.6491925953
  0
LINE
  5
38D
100
AcDbEntity
  8
0
100
AcDbLine
 62
2
  6
CONTINUOUS
 10
695.4686973533
 20
472.6491925953
 11
758.126806513
 21
472.6412041823
  0
LINE
  5
38E
100
AcDbEntity
  8
0
100
AcDbLine
 62
2
  6
CONTINUOUS
 10
761.1268064807
 20
472.6407639994
 11
773.1268063515
 21
472.6390032679
  0
LINE
  5
38F
100
AcDbEntity
  8
0
100
AcDbLine
 62
2
  6
CONTINUOUS
 10
773.1268063515
 20
472.6390032679
 11
758.126806513
 21
472.6412041823
  0
INSERT
  5
390
100
AcDbEntity
  8
0
100
AcDbBlockReference
 62
2
  6
CONTINUOUS
  2
_FILLED
 10
755.1268065453
 20
472.6416443651
 41
7.0
 42
7.0
 43
7.0
 50
359.9927506631
  0
INSERT
  5
391
100
AcDbEntity
  8
0
100
AcDbBlockReference
 62
2
  6
CONTINUOUS
  2
_FILLED
 10
761.1268064807
 20
472.6407639994
 41
7.0
 42
7.0
 43
7.0
 50
179.9915931262
  0
ENDBLK
  5
392
100
AcDbEntity
  8
0
  6
BYBLOCK
 62
0
100
AcDbBlockEnd
  0
BLOCK
  5
393
100
AcDbEntity
  8
0
100
AcDbBlockBegin
 62
2
  6
CONTINUOUS
  2
*D18
 70
65
 10
0.0
 20
0.0
  3
*D18
  1

  0
MTEXT
  5
394
100
AcDbEntity
  8
0
100
AcDbMText
 62
5
  6
CONTINUOUS
  7
TEXTSTYLE_2
 71
2
 72
1
 10
722.6150355413
 20
492.1991925953
 30
0.0
 11
1.0
 21
0.0
 31
0.0
 44
0.9
  1
{\Fgdt;o}\Ftxt;90
 40
5.0
 41
14.7321428571
  0
LINE
  5
395
100
AcDbEntity
  8
0
100
AcDbLine
 62
2
  6
CONTINUOUS
 10
767.7650354027
 20
374.889314208
 11
767.7650354027
 21
488.9491925953
  0
LINE
  5
396
100
AcDbEntity
  8
0
100
AcDbLine
 62
2
  6
CONTINUOUS
 10
677.7650354027
 20
374.889314208
 11
677.7650354027
 21
488.9491925953
  0
LINE
  5
397
100
AcDbEntity
  8
0
100
AcDbLine
 62
2
  6
CONTINUOUS
 10
767.7650354027
 20
485.9491925953
 11
722.7650354027
 21
485.9491925953
  0
LINE
  5
398
100
AcDbEntity
  8
0
100
AcDbLine
 62
2
  6
CONTINUOUS
 10
677.7650354027
 20
485.9491925953
 11
722.7650354027
 21
485.9491925953
  0
INSERT
  5
399
100
AcDbEntity
  8
0
100
AcDbBlockReference
 62
2
  6
CONTINUOUS
  2
_FILLED
 10
767.7650354027
 20
485.9491925953
 41
7.0
 42
7.0
 43
7.0
  0
INSERT
  5
39A
100
AcDbEntity
  8
0
100
AcDbBlockReference
 62
2
  6
CONTINUOUS
  2
_FILLED
 10
677.7650354027
 20
485.9491925953
 41
7.0
 42
7.0
 43
7.0
 50
180.0
  0
ENDBLK
  5
39B
100
AcDbEntity
  8
0
  6
BYBLOCK
 62
0
100
AcDbBlockEnd
  0
BLOCK
  5
39C
100
AcDbEntity
  8
ZEICHNUNGSBEMASSUNGEN
100
AcDbBlockBegin
 62
2
  6
CONTINUOUS
  2
*D19
 70
65
 10
0.0
 20
0.0
  3
*D19
  1

  0
MTEXT
  5
39D
100
AcDbEntity
  8
ZEICHNUNGSBEMASSUNGEN
100
AcDbMText
 62
5
  6
CONTINUOUS
  7
STANDARD
 71
2
 72
1
 10
407.0149720406
 20
532.1991925953
 30
0.0
 11
1.0
 21
0.0
 31
0.0
 44
0.9
  1
158
 40
5.0
 41
10.3571428571
  0
LINE
  5
39E
100
AcDbEntity
  8
ZEICHNUNGSBEMASSUNGEN
100
AcDbLine
 62
2
  6
CONTINUOUS
 10
333.0149554439
 20
432.2437452535
 11
333.0149554439
 21
528.9491925953
  0
LINE
  5
39F
100
AcDbEntity
  8
ZEICHNUNGSBEMASSUNGEN
100
AcDbLine
 62
2
  6
CONTINUOUS
 10
491.0149554439
 20
435.4491912939
 11
491.0149554439
 21
450.1006818792
  0
LINE
  5
3A0
100
AcDbEntity
  8
ZEICHNUNGSBEMASSUNGEN
100
AcDbLine
 62
2
  6
CONTINUOUS
 10
491.0149554439
 20
462.0624276868
 11
491.0149554439
 21
528.9491925953
  0
LINE
  5
3A1
100
AcDbEntity
  8
ZEICHNUNGSBEMASSUNGEN
100
AcDbLine
 62
2
  6
CONTINUOUS
 10
333.0149554439
 20
525.9491925953
 11
412.0149554439
 21
525.9491925953
  0
LINE
  5
3A2
100
AcDbEntity
  8
ZEICHNUNGSBEMASSUNGEN
100
AcDbLine
 62
2
  6
CONTINUOUS
 10
491.0149554439
 20
525.9491925953
 11
412.0149554439
 21
525.9491925953
  0
INSERT
  5
3A3
100
AcDbEntity
  8
ZEICHNUNGSBEMASSUNGEN
100
AcDbBlockReference
 62
2
  6
CONTINUOUS
  2
_FILLED
 10
333.0149554439
 20
525.9491925953
 41
7.0
 42
7.0
 43
7.0
 50
180.0
  0
INSERT
  5
3A4
100
AcDbEntity
  8
ZEICHNUNGSBEMASSUNGEN
100
AcDbBlockReference
 62
2
  6
CONTINUOUS
  2
_FILLED
 10
491.0149554439
 20
525.9491925953
 41
7.0
 42
7.0
 43
7.0
  0
ENDBLK
  5
3A5
100
AcDbEntity
  8
0
  6
BYBLOCK
 62
0
100
AcDbBlockEnd
  0
BLOCK
  5
3A6
100
AcDbEntity
  8
ZEICHNUNGSBEMASSUNGEN
100
AcDbBlockBegin
 62
2
  6
CONTINUOUS
  2
*D20
 70
65
 10
0.0
 20
0.0
  3
*D20
  1

  0
MTEXT
  5
3A7
100
AcDbEntity
  8
ZEICHNUNGSBEMASSUNGEN
100
AcDbMText
 62
5
  6
CONTINUOUS
  7
STANDARD
 71
2
 72
1
 10
362.0149554439
 20
334.6991925953
 30
0.0
 11
1.0
 21
0.0
 31
0.0
 44
0.9
  1
58
 40
5.0
 41
7.5
  0
LINE
  5
3A8
100
AcDbEntity
  8
ZEICHNUNGSBEMASSUNGEN
100
AcDbLine
 62
2
  6
CONTINUOUS
 10
391.0149554439
 20
390.4491925953
 11
391.0149554439
 21
325.4491925953
  0
LINE
  5
3A9
100
AcDbEntity
  8
ZEICHNUNGSBEMASSUNGEN
100
AcDbLine
 62
2
  6
CONTINUOUS
 10
333.0149554439
 20
345.4491925953
 11
333.0149554439
 21
325.4491925953
  0
LINE
  5
3AA
100
AcDbEntity
  8
ZEICHNUNGSBEMASSUNGEN
100
AcDbLine
 62
2
  6
CONTINUOUS
 10
391.0149554439
 20
328.4491925953
 11
362.0149554439
 21
328.4491925953
  0
LINE
  5
3AB
100
AcDbEntity
  8
ZEICHNUNGSBEMASSUNGEN
100
AcDbLine
 62
2
  6
CONTINUOUS
 10
333.0149554439
 20
328.4491925953
 11
362.0149554439
 21
328.4491925953
  0
INSERT
  5
3AC
100
AcDbEntity
  8
ZEICHNUNGSBEMASSUNGEN
100
AcDbBlockReference
 62
2
  6
CONTINUOUS
  2
_FILLED
 10
391.0149554439
 20
328.4491925953
 41
7.0
 42
7.0
 43
7.0
  0
INSERT
  5
3AD
100
AcDbEntity
  8
ZEICHNUNGSBEMASSUNGEN
100
AcDbBlockReference
 62
2
  6
CONTINUOUS
  2
_FILLED
 10
333.0149554439
 20
328.4491925953
 41
7.0
 42
7.0
 43
7.0
 50
180.0
  0
ENDBLK
  5
3AE
100
AcDbEntity
  8
0
  6
BYBLOCK
 62
0
100
AcDbBlockEnd
  0
BLOCK
  5
3AF
100
AcDbEntity
  8
ZEICHNUNGSBEMASSUNGEN
100
AcDbBlockBegin
 62
2
  6
CONTINUOUS
  2
*D21
 70
65
 10
0.0
 20
0.0
  3
*D21
  1

  0
MTEXT
  5
3B0
100
AcDbEntity
  8
ZEICHNUNGSBEMASSUNGEN
100
AcDbMText
 62
5
  6
CONTINUOUS
  7
TEXTSTYLE_2
 71
3
 72
1
 10
654.8919115008
 20
334.5982043914
 30
0.0
 11
0.7071067812
 21
0.7071067812
 31
0.0
 44
0.9
  1
{\Fgdt;n}\Ftxt;115
 40
5.0
 41
15.9523809524
  0
LINE
  5
3B1
100
AcDbEntity
  8
ZEICHNUNGSBEMASSUNGEN
100
AcDbLine
 62
2
  6
CONTINUOUS
 10
761.3023549773
 20
436.2291528571
 11
761.2107045108
 21
436.3208033237
  0
LINE
  5
3B2
100
AcDbEntity
  8
ZEICHNUNGSBEMASSUNGEN
100
AcDbLine
 62
2
  6
CONTINUOUS
 10
679.9850751409
 20
354.9118730207
 11
679.8934246743
 21
355.0035234872
  0
LINE
  5
3B3
100
AcDbEntity
  8
ZEICHNUNGSBEMASSUNGEN
100
AcDbLine
 62
2
  6
CONTINUOUS
 10
763.3320248543
 20
434.1994829801
 11
722.6733849361
 21
393.5408430619
  0
LINE
  5
3B4
100
AcDbEntity
  8
ZEICHNUNGSBEMASSUNGEN
100
AcDbLine
 62
2
  6
CONTINUOUS
 10
682.0147450179
 20
352.8822031437
 11
722.6733849361
 21
393.5408430619
  0
LINE
  5
3B5
100
AcDbEntity
  8
ZEICHNUNGSBEMASSUNGEN
100
AcDbLine
 62
2
  6
CONTINUOUS
 10
722.6733849361
 20
393.5408430619
 11
648.0312921357
 21
318.8987502615
  0
INSERT
  5
3B6
100
AcDbEntity
  8
ZEICHNUNGSBEMASSUNGEN
100
AcDbBlockReference
 62
2
  6
CONTINUOUS
  2
_FILLED
 10
763.3320248543
 20
434.1994829801
 41
7.0
 42
7.0
 43
7.0
 50
45.0
  0
INSERT
  5
3B7
100
AcDbEntity
  8
ZEICHNUNGSBEMASSUNGEN
100
AcDbBlockReference
 62
2
  6
CONTINUOUS
  2
_FILLED
 10
682.0147450179
 20
352.8822031437
 41
7.0
 42
7.0
 43
7.0
 50
225.0
  0
ENDBLK
  5
3B8
100
AcDbEntity
  8
0
  6
BYBLOCK
 62
0
100
AcDbBlockEnd
  0
BLOCK
  5
3B9
100
AcDbEntity
  8
0
100
AcDbBlockBegin
 62
2
  6
CONTINUOUS
  2
*D22
 70
65
 10
0.0
 20
0.0
  3
*D22
  1

  0
MTEXT
  5
3BA
100
AcDbEntity
  8
0
100
AcDbMText
 62
5
  6
CONTINUOUS
  7
STANDARD
 71
3
 72
1
 10
71.6904700692
 20
388.8386368454
 30
0.0
 11
0.9851960179
 21
0.1714316373
 31
0.0
 44
0.9
  1
    \Fgdt;{\Fgdt;n}\Ftxt;63
 40
5.0
 41
29.880952381
  0
LINE
  5
3BB
100
AcDbEntity
  8
0
100
AcDbLine
 62
2
  6
CONTINUOUS
 10
118.1938322858
 20
388.049096021
 11
149.2275068505
 21
393.4491925953
  0
LINE
  5
3BC
100
AcDbEntity
  8
0
100
AcDbLine
 62
2
  6
CONTINUOUS
 10
149.2275068505
 20
393.4491925953
 11
41.288911553
 21
374.6670520052
  0
LINE
  5
3BD
100
AcDbEntity
  8
0
100
AcDbLine
 62
2
  6
CONTINUOUS
 10
180.2611814152
 20
398.8492891697
 11
149.2275068505
 21
393.4491925953
  0
INSERT
  5
3BE
100
AcDbEntity
  8
0
100
AcDbBlockReference
 62
2
  6
CONTINUOUS
  2
_FILLED
 10
118.1938322858
 20
388.049096021
 41
7.0
 42
7.0
 43
7.0
 50
189.871067906
  0
INSERT
  5
3BF
100
AcDbEntity
  8
0
100
AcDbBlockReference
 62
2
  6
CONTINUOUS
  2
_FILLED
 10
180.2611814152
 20
398.8492891697
 41
7.0
 42
7.0
 43
7.0
 50
9.871067906
  0
ENDBLK
  5
3C0
100
AcDbEntity
  8
0
  6
BYBLOCK
 62
0
100
AcDbBlockEnd
  0
BLOCK
  5
3C1
100
AcDbEntity
  8
0
100
AcDbBlockBegin
 62
2
  6
CONTINUOUS
  2
*D23
 70
65
 10
0.0
 20
0.0
  3
*D23
  1

  0
MTEXT
  5
3C2
100
AcDbEntity
  8
0
100
AcDbMText
 62
5
  6
CONTINUOUS
  7
STANDARD
 71
3
 72
1
 10
112.7894947799
 20
309.7043885936
 30
0.0
 11
0.9999993597
 21
-0.0011316187
 31
0.0
 44
0.9
  1
M6
 40
5.0
 41
8.2142857143
  0
LINE
  5
3C3
100
AcDbEntity
  8
0
100
AcDbLine
 62
2
  6
CONTINUOUS
 10
158.2786420349
 20
361.3503840981
 11
158.2096727758
 21
300.4029843171
  0
LINE
  5
3C4
100
AcDbEntity
  8
0
100
AcDbLine
 62
2
  6
CONTINUOUS
 10
164.2786381932
 20
361.3435943861
 11
164.2096689342
 21
300.3961946051
  0
LINE
  5
3C5
100
AcDbEntity
  8
0
100
AcDbLine
 62
2
  6
CONTINUOUS
 10
158.2130676318
 20
303.4029823963
 11
104.5681417085
 21
303.4636880343
  0
LINE
  5
3C6
100
AcDbEntity
  8
0
100
AcDbLine
 62
2
  6
CONTINUOUS
 10
104.5681417085
 20
303.4636880343
 11
161.213065711
 21
303.3995875403
  0
LINE
  5
3C7
100
AcDbEntity
  8
0
100
AcDbLine
 62
2
  6
CONTINUOUS
 10
164.2130637901
 20
303.3961926843
 11
176.2130561068
 21
303.3826132604
  0
LINE
  5
3C8
100
AcDbEntity
  8
0
100
AcDbLine
 62
2
  6
CONTINUOUS
 10
176.2130561068
 20
303.3826132604
 11
161.213065711
 21
303.3995875403
  0
INSERT
  5
3C9
100
AcDbEntity
  8
0
100
AcDbBlockReference
 62
2
  6
CONTINUOUS
  2
_FILLED
 10
158.2130676318
 20
303.4029823963
 41
7.0
 42
7.0
 43
7.0
 50
359.9351630129
  0
INSERT
  5
3CA
100
AcDbEntity
  8
0
100
AcDbBlockReference
 62
2
  6
CONTINUOUS
  2
_FILLED
 10
164.2130637901
 20
303.3961926843
 41
7.0
 42
7.0
 43
7.0
 50
179.9351630129
  0
ENDBLK
  5
3CB
100
AcDbEntity
  8
0
  6
BYBLOCK
 62
0
100
AcDbBlockEnd
  0
BLOCK
  5
3CC
100
AcDbEntity
  8
0
100
AcDbBlockBegin
 62
2
  6
CONTINUOUS
  2
*D24
 70
65
 10
0.0
 20
0.0
  3
*D24
  1

  0
MTEXT
  5
3CD
100
AcDbEntity
  8
0
100
AcDbMText
 62
5
  6
CONTINUOUS
  7
TEXTSTYLE_2
 71
3
 72
1
 10
136.5086139171
 20
507.7991851472
 30
0.0
 11
0.9999988083
 21
0.0015438286
 31
0.0
 44
0.9
  1
{\Fgdt;n}\Ftxt;5.5
 40
5.0
 41
16.6666666667
  0
LINE
  5
3CE
100
AcDbEntity
  8
0
100
AcDbLine
 62
2
  6
CONTINUOUS
 10
146.4728786418
 20
463.9449434915
 11
146.4101689829
 21
504.5644675966
  0
LINE
  5
3CF
100
AcDbEntity
  8
0
100
AcDbLine
 62
2
  6
CONTINUOUS
 10
151.9728720875
 20
463.953434549
 11
151.9101624285
 21
504.572958654
  0
LINE
  5
3D0
100
AcDbEntity
  8
0
100
AcDbLine
 62
2
  6
CONTINUOUS
 10
146.4148004688
 20
501.5644711717
 11
119.8516160411
 21
501.5234621182
  0
LINE
  5
3D1
100
AcDbEntity
  8
0
100
AcDbLine
 62
2
  6
CONTINUOUS
 10
119.8516160411
 20
501.5234621182
 11
149.1647971916
 21
501.5687167004
  0
LINE
  5
3D2
100
AcDbEntity
  8
0
100
AcDbLine
 62
2
  6
CONTINUOUS
 10
151.9147939144
 20
501.5729622291
 11
163.9147796139
 21
501.5914881727
  0
LINE
  5
3D3
100
AcDbEntity
  8
0
100
AcDbLine
 62
2
  6
CONTINUOUS
 10
163.9147796139
 20
501.5914881727
 11
149.1647971916
 21
501.5687167004
  0
INSERT
  5
3D4
100
AcDbEntity
  8
0
100
AcDbBlockReference
 62
2
  6
CONTINUOUS
  2
_FILLED
 10
146.4148004688
 20
501.5644711717
 41
7.0
 42
7.0
 43
7.0
 50
0.0884548999
  0
INSERT
  5
3D5
100
AcDbEntity
  8
0
100
AcDbBlockReference
 62
2
  6
CONTINUOUS
  2
_FILLED
 10
151.9147939144
 20
501.5729622291
 41
7.0
 42
7.0
 43
7.0
 50
180.0884548999
  0
ENDBLK
  5
3D6
100
AcDbEntity
  8
0
  6
BYBLOCK
 62
0
100
AcDbBlockEnd
  0
BLOCK
  5
3D7
100
AcDbEntity
  8
0
100
AcDbBlockBegin
 62
2
  6
CONTINUOUS
  2
*D25
 70
65
 10
0.0
 20
0.0
  3
*D25
  1

  0
MTEXT
  5
3D8
100
AcDbEntity
  8
0
100
AcDbMText
 62
5
  6
CONTINUOUS
  7
STANDARD
 71
3
 72
1
 10
79.4462732848
 20
360.9231242491
 30
0.0
 11
0.8524868595
 21
0.5227486531
 31
0.0
 44
0.9
  1
    \Fgdt;{\Fgdt;n}\Ftxt;135
 40
5.0
 41
32.380952381
  0
LINE
  5
3D9
100
AcDbEntity
  8
0
100
AcDbLine
 62
2
  6
CONTINUOUS
 10
91.6846438316
 20
358.1636585115
 11
149.2275068505
 21
393.4491925953
  0
LINE
  5
3DA
100
AcDbEntity
  8
0
100
AcDbLine
 62
2
  6
CONTINUOUS
 10
149.2275068505
 20
393.4491925953
 11
54.2847704464
 21
335.2298933523
  0
LINE
  5
3DB
100
AcDbEntity
  8
0
100
AcDbLine
 62
2
  6
CONTINUOUS
 10
206.7703698695
 20
428.7347266792
 11
149.2275068505
 21
393.4491925953
  0
INSERT
  5
3DC
100
AcDbEntity
  8
0
100
AcDbBlockReference
 62
2
  6
CONTINUOUS
  2
_FILLED
 10
91.6846438316
 20
358.1636585115
 41
7.0
 42
7.0
 43
7.0
 50
211.5168069689
  0
INSERT
  5
3DD
100
AcDbEntity
  8
0
100
AcDbBlockReference
 62
2
  6
CONTINUOUS
  2
_FILLED
 10
206.7703698695
 20
428.7347266792
 41
7.0
 42
7.0
 43
7.0
 50
31.5168069689
  0
ENDBLK
  5
3DE
100
AcDbEntity
  8
0
  6
BYBLOCK
 62
0
100
AcDbBlockEnd
  0
BLOCK
  5
3DF
100
AcDbEntity
  8
0
100
AcDbBlockBegin
 62
2
  6
CONTINUOUS
  2
*D26
 70
65
 10
0.0
 20
0.0
  3
*D26
  1

  0
MTEXT
  5
3E0
100
AcDbEntity
  8
0
100
AcDbMText
 62
5
  6
CONTINUOUS
  7
STANDARD
 71
2
 72
1
 10
105.7531268997
 20
492.9603170776
 30
0.0
 11
0.9163659773
 21
0.4003415988
 31
0.0
 44
0.9
  1
8x45\Fgdt;{\Fgdt;~}
 40
5.0
 41
18.3333333333
  0
LINE
  5
3E1
100
AcDbEntity
  8
0
100
AcDbLine
 62
2
  6
CONTINUOUS
 10
149.2275068505
 20
396.4491925953
 11
149.2275068505
 21
492.5424042056
  0
LINE
  5
3E2
100
AcDbEntity
  8
0
100
AcDbLine
 62
2
  6
CONTINUOUS
 10
147.106186507
 20
395.5705129389
 11
79.1580249514
 21
463.5186744945
  0
ARC
  5
3E3
100
AcDbEntity
  8
0
100
AcDbCircle
 62
2
  6
CONTINUOUS
 10
149.2275068505
 20
393.4491925953
 40
96.0932116102
100
AcDbArc
 50
90.0
 51
112.5
  0
ARC
  5
3E4
100
AcDbEntity
  8
0
100
AcDbCircle
 62
2
  6
CONTINUOUS
 10
149.2275068505
 20
393.4491925953
 40
96.0932116102
100
AcDbArc
 50
112.5
 51
135.0
  0
SOLID
  5
3E5
100
AcDbEntity
  8
0
100
AcDbTrace
 62
2
  6
CONTINUOUS
 10
142.2640126025
 20
488.4130801346
 11
149.2275068505
 21
489.5424042056
 12
142.2002865003
 22
490.1619194594
 13
142.2002865003
 23
490.1619194594
  0
SOLID
  5
3E6
100
AcDbEntity
  8
0
100
AcDbTrace
 62
2
  6
CONTINUOUS
 10
85.8102770205
 20
466.8044127505
 11
81.2793452949
 21
461.3973541509
 12
87.0018320073
 22
465.5227354457
 13
87.0018320073
 23
465.5227354457
  0
ENDBLK
  5
3E7
100
AcDbEntity
  8
0
  6
BYBLOCK
 62
0
100
AcDbBlockEnd
  0
BLOCK
  5
3E8
100
AcDbEntity
  8
0
100
AcDbBlockBegin
 62
2
  6
CONTINUOUS
  2
*D27
 70
65
 10
0.0
 20
0.0
  3
*D27
  1

  0
MTEXT
  5
3E9
100
AcDbEntity
  8
0
100
AcDbMText
 62
5
  6
CONTINUOUS
  7
STANDARD
 71
2
 72
1
 10
100.467179319
 20
468.1491576122
 30
0.0
 11
0.8373901803
 21
0.5466056036
 31
0.0
 44
0.9
  1
4x22.5\Fgdt;{\Fgdt;~}
 40
5.0
 41
25.119047619
  0
LINE
  5
3EA
100
AcDbEntity
  8
0
100
AcDbLine
 62
2
  6
CONTINUOUS
 10
147.106186507
 20
395.5705129389
 11
92.867076178
 21
449.8096232679
  0
LINE
  5
3EB
100
AcDbEntity
  8
0
100
AcDbLine
 62
2
  6
CONTINUOUS
 10
148.0794565534
 20
396.2208311929
 11
118.725461568
 21
467.0876439965
  0
ARC
  5
3EC
100
AcDbEntity
  8
0
100
AcDbCircle
 62
2
  6
CONTINUOUS
 10
149.2275068505
 20
393.4491925953
 40
76.7056854382
100
AcDbArc
 50
123.75
 51
135.0
  0
ARC
  5
3ED
100
AcDbEntity
  8
0
100
AcDbCircle
 62
2
  6
CONTINUOUS
 10
149.2275068505
 20
393.4491925953
 40
76.7056854382
100
AcDbArc
 50
112.5
 51
123.75
  0
SOLID
  5
3EE
100
AcDbEntity
  8
0
100
AcDbTrace
 62
2
  6
CONTINUOUS
 10
99.5689128375
 20
453.0534213088
 11
94.9883965216
 21
447.6883029243
 12
100.7486183993
 22
451.7608290346
 13
100.7486183993
 23
451.7608290346
  0
SOLID
  5
3EF
100
AcDbEntity
  8
0
100
AcDbTrace
 62
2
  6
CONTINUOUS
 10
113.9066468668
 20
460.5527425738
 11
119.8735118651
 21
464.316005399
 12
113.1639010944
 22
462.1373020449
 13
113.1639010944
 23
462.1373020449
  0
ENDBLK
  5
3F0
100
AcDbEntity
  8
0
  6
BYBLOCK
 62
0
100
AcDbBlockEnd
  0
BLOCK
  5
3F1
100
AcDbEntity
  8
0
100
AcDbBlockBegin
 62
2
  6
CONTINUOUS
  2
*D28
 70
65
 10
0.0
 20
0.0
  3
*D28
  1

  0
MTEXT
  5
3F2
100
AcDbEntity
  8
0
100
AcDbMText
 62
5
  6
CONTINUOUS
  7
STANDARD
 71
2
 72
1
 10
431.0149554439
 20
507.1991925953
 30
0.0
 11
1.0
 21
0.0
 31
0.0
 44
0.9
  1
62
 40
5.0
 41
7.8571428571
  0
LINE
  5
3F3
100
AcDbEntity
  8
0
100
AcDbLine
 62
2
  6
CONTINUOUS
 10
400.0149554439
 20
389.82841344
 11
400.0149554439
 21
503.9491925953
  0
LINE
  5
3F4
100
AcDbEntity
  8
0
100
AcDbLine
 62
2
  6
CONTINUOUS
 10
462.0149554439
 20
388.8213968546
 11
462.0149554439
 21
503.9491925953
  0
LINE
  5
3F5
100
AcDbEntity
  8
0
100
AcDbLine
 62
2
  6
CONTINUOUS
 10
400.0149554439
 20
500.9491925953
 11
431.0149554439
 21
500.9491925953
  0
LINE
  5
3F6
100
AcDbEntity
  8
0
100
AcDbLine
 62
2
  6
CONTINUOUS
 10
462.0149554439
 20
500.9491925953
 11
431.0149554439
 21
500.9491925953
  0
INSERT
  5
3F7
100
AcDbEntity
  8
0
100
AcDbBlockReference
 62
2
  6
CONTINUOUS
  2
_FILLED
 10
400.0149554439
 20
500.9491925953
 41
7.0
 42
7.0
 43
7.0
 50
180.0
  0
INSERT
  5
3F8
100
AcDbEntity
  8
0
100
AcDbBlockReference
 62
2
  6
CONTINUOUS
  2
_FILLED
 10
462.0149554439
 20
500.9491925953
 41
7.0
 42
7.0
 43
7.0
  0
ENDBLK
  5
3F9
100
AcDbEntity
  8
0
  6
BYBLOCK
 62
0
100
AcDbBlockEnd
  0
BLOCK
  5
3FA
100
AcDbEntity
  8
0
100
AcDbBlockBegin
 62
2
  6
CONTINUOUS
  2
*D29
 70
65
 10
0.0
 20
0.0
  3
*D29
  1

  0
MTEXT
  5
3FB
100
AcDbEntity
  8
0
100
AcDbMText
 62
5
  6
CONTINUOUS
  7
STANDARD
 71
2
 72
1
 10
366.5149554439
 20
474.6991925953
 30
0.0
 11
1.0
 21
0.0
 31
0.0
 44
0.9
  1
67
 40
5.0
 41
7.8571428571
  0
LINE
  5
3FC
100
AcDbEntity
  8
0
100
AcDbLine
 62
2
  6
CONTINUOUS
 10
400.0149554439
 20
370.2861675395
 11
400.0149554439
 21
471.4491925953
  0
LINE
  5
3FD
100
AcDbEntity
  8
0
100
AcDbLine
 62
2
  6
CONTINUOUS
 10
333.0149554439
 20
381.5045071331
 11
333.0149554439
 21
471.4491925953
  0
LINE
  5
3FE
100
AcDbEntity
  8
0
100
AcDbLine
 62
2
  6
CONTINUOUS
 10
400.0149554439
 20
468.4491925953
 11
366.5149554439
 21
468.4491925953
  0
LINE
  5
3FF
100
AcDbEntity
  8
0
100
AcDbLine
 62
2
  6
CONTINUOUS
 10
333.0149554439
 20
468.4491925953
 11
366.5149554439
 21
468.4491925953
  0
INSERT
  5
400
100
AcDbEntity
  8
0
100
AcDbBlockReference
 62
2
  6
CONTINUOUS
  2
_FILLED
 10
400.0149554439
 20
468.4491925953
 41
7.0
 42
7.0
 43
7.0
  0
INSERT
  5
401
100
AcDbEntity
  8
0
100
AcDbBlockReference
 62
2
  6
CONTINUOUS
  2
_FILLED
 10
333.0149554439
 20
468.4491925953
 41
7.0
 42
7.0
 43
7.0
 50
180.0
  0
ENDBLK
  5
402
100
AcDbEntity
  8
0
  6
BYBLOCK
 62
0
100
AcDbBlockEnd
  0
ENDSEC
  0
SECTION
  2
ENTITIES
  0
DIMENSION
  5
403
100
AcDbEntity
  8
0
100
AcDbDimension
 62
2
  6
CONTINUOUS
  2
*D0
 10
521.0388636914
 20
413.4148215609
 11
518.7120489007
 21
385.036937984
 70
160
 71
2
 42
40.0
  1
%%c<>
  3
DIMSTYLE_1
100
AcDbAlignedDimension
 13
491.0149554439
 23
373.4434572662
 14
491.0149554439
 24
413.4434754827
 50
89.9453186351
100
AcDbRotatedDimension
  0
LEADER
  5
404
100
AcDbEntity
  8
0
100
AcDbLeader
 62
2
  6
CONTINUOUS
  3
STANDARD
 71
1
 72
0
 73
2
 75
0
 76
3
 10
516.8216517888
 20
373.4188281256
 30
0.0
 10
516.9561601104
 20
320.9491925953
 30
0.0
 10
520.5304520279
 20
320.9491925953
 30
0.0
340
405
1001
ACAD
1000
DSTYLE
1002
{
1070
77
1070
0
1002
}
  0
INSERT
  5
405
102
{ACAD_REACTORS
330
404
102
}
100
AcDbEntity
  8
0
100
AcDbBlockReference
 62
2
  6
CONTINUOUS
  2
SYMBOL_152_BL0
 10
552.53044384
 20
320.6599959229
  0
DIMENSION
  5
406
100
AcDbEntity
  8
0
100
AcDbDimension
 62
2
  6
CONTINUOUS
  2
*D1
 10
551.0149554439
 20
448.4491925953
 11
549.0919222716
 21
385.770807965
 70
160
 71
2
 42
110.0
  1
%%c<>
  3
DIMSTYLE_1
100
AcDbAlignedDimension
 13
484.5149554439
 23
338.4491925953
 14
484.5149554439
 24
448.4491925953
 50
90.0
100
AcDbRotatedDimension
  0
INSERT
  5
407
100
AcDbEntity
  8
0
100
AcDbBlockReference
 62
2
  6
CONTINUOUS
  2
SYMBOL_143_BL1
 10
551.0149554439
 20
460.9491925953
  0
DIMENSION
  5
408
100
AcDbEntity
  8
0
100
AcDbDimension
 62
2
  6
CONTINUOUS
  2
*D2
 10
536.0141585123
 20
433.4499838445
 11
533.8918894072
 21
384.8812002867
 70
160
 71
2
 42
80.0
  1
%%c<>
  3
DIMSTYLE_1
100
AcDbAlignedDimension
 13
491.9813562269
 23
353.4492095819
 14
492.4117552433
 24
433.4492171621
 50
90.0010074597
100
AcDbRotatedDimension
  0
LEADER
  5
409
100
AcDbEntity
  8
0
100
AcDbLeader
 62
2
  6
CONTINUOUS
  3
STANDARD
 71
1
 72
0
 73
2
 75
0
 76
3
 10
529.0867928168
 20
433.4498620373
 30
0.0
 10
529.0451232284
 20
485.9491925953
 30
0.0
 10
541.2031852221
 20
485.9491925953
 30
0.0
340
40A
1001
ACAD
1000
DSTYLE
1002
{
1070
77
1070
0
1002
}
  0
INSERT
  5
40A
102
{ACAD_REACTORS
330
409
102
}
100
AcDbEntity
  8
0
100
AcDbBlockReference
 62
2
  6
CONTINUOUS
  2
SYMBOL_115_BL2
 10
573.2031770342
 20
485.6599959229
  0
DIMENSION
  5
40B
100
AcDbEntity
  8
0
100
AcDbDimension
 62
2
  6
CONTINUOUS
  2
*D3
 10
450.0149554439
 20
465.9491925953
 11
450.0789153907
 21
298.8276733754
 70
160
 71
3
 42
145.0
  1
%%c<>
  3
DIMSTYLE_2
100
AcDbAlignedDimension
 13
454.0149554439
 23
320.9491925953
 14
454.0149554439
 24
465.9491925953
 50
90.0
100
AcDbRotatedDimension
  0
DIMENSION
  5
40C
100
AcDbEntity
  8
0
100
AcDbDimension
 62
2
  6
CONTINUOUS
  2
*D4
 10
438.0149554439
 20
450.9491925953
 11
437.8388759535
 21
299.8423144452
 70
160
 71
3
 42
115.0
  1
%%c<>
  3
DIMSTYLE_1
100
AcDbAlignedDimension
 13
450.0149554439
 23
335.9491925953
 14
450.0149554439
 24
450.9491925953
 50
90.0
100
AcDbRotatedDimension
  0
DIMENSION
  5
40D
100
AcDbEntity
  8
0
100
AcDbDimension
 62
2
  6
CONTINUOUS
  2
*D5
 10
462.0149554439
 20
515.9491925953
 11
472.5863840153
 21
519.6991925953
 70
160
 71
2
 42
29.0
  3
DIMSTYLE_3
100
AcDbAlignedDimension
 13
491.0149554439
 23
436.4491925953
 14
462.0149554439
 24
468.9491925953
 50
180.0
100
AcDbRotatedDimension
  0
LEADER
  5
40E
100
AcDbEntity
  8
0
100
AcDbLeader
 62
2
  6
CONTINUOUS
  3
STANDARD
 71
1
 72
0
 73
2
 75
0
 76
3
 10
491.0149554439
 20
512.3695756828
 30
0.0
 10
540.9377877055
 20
511.9491925953
 30
0.0
 10
540.9378717895
 20
511.9491925953
 30
0.0
340
40F
1001
ACAD
1000
DSTYLE
1002
{
1070
77
1070
0
1002
}
  0
INSERT
  5
40F
102
{ACAD_REACTORS
330
40E
102
}
100
AcDbEntity
  8
0
100
AcDbBlockReference
 62
2
  6
CONTINUOUS
  2
SYMBOL_179_BL3
 10
572.9378636016
 20
511.6599959229
  0
DIMENSION
  5
410
100
AcDbEntity
  8
0
100
AcDbDimension
 62
2
  6
CONTINUOUS
  2
*D6
 10
454.0149554439
 20
475.9491925953
 11
435.5653797131
 21
479.6991925953
 70
160
 71
3
 42
8.0
  3
DIMSTYLE_3
100
AcDbAlignedDimension
 13
462.0149554439
 23
468.9491925953
 14
454.0149554439
 24
468.9491925953
 50
180.0
100
AcDbRotatedDimension
  0
DIMENSION
  5
411
100
AcDbEntity
  8
0
100
AcDbDimension
 62
2
  6
CONTINUOUS
  2
*D7
 10
462.0149554439
 20
485.9491925953
 11
436.586516204
 21
489.6991925953
 70
160
 71
3
 42
12.0
  3
DIMSTYLE_3
100
AcDbAlignedDimension
 13
474.0149554439
 23
451.4491925953
 14
462.0149554439
 24
451.4491925953
 50
180.0
100
AcDbRotatedDimension
  0
DIMENSION
  5
412
100
AcDbEntity
  8
0
100
AcDbDimension
 62
2
  6
CONTINUOUS
  2
*D8
 10
511.7992016642
 20
445.1434993912
 11
498.5022717859
 21
438.2223140913
 70
162
 71
2
 42
0.0872664626
  3
DIMSTYLE_4
100
AcDb2LineAngularDimension
 13
511.9435313464
 23
448.4491925953
 14
484.5149554439
 24
448.4491925953
 15
484.5149554439
 25
447.5305616283
 16
508.9102870817
 26
446.9256295129
  0
DIMENSION
  5
413
100
AcDbEntity
  8
0
100
AcDbDimension
 62
2
  6
CONTINUOUS
  2
*D9
 10
485.0149554439
 20
490.9491925953
 11
505.0299670272
 21
494.6991925953
 70
160
 71
1
 42
6.0
  3
DIMSTYLE_5
100
AcDbAlignedDimension
 13
491.0149554439
 23
435.8856515515
 14
485.0149554439
 24
435.6658463314
 50
180.0
100
AcDbRotatedDimension
  0
DIMENSION
  5
414
100
AcDbEntity
  8
0
100
AcDbDimension
 62
2
  6
CONTINUOUS
  2
*D10
 10
485.0149554439
 20
381.5045071331
 11
505.098461895
 21
385.2545071331
 70
160
 71
1
 42
6.0
  3
DIMSTYLE_5
100
AcDbAlignedDimension
 13
491.0149554439
 23
378.5045071331
 14
485.0149554439
 24
378.5045071331
 50
180.0
100
AcDbRotatedDimension
  0
DIMENSION
  5
415
100
AcDbEntity
  8
0
100
AcDbDimension
 62
2
  6
CONTINUOUS
  2
*D11
 10
462.0149554439
 20
500.9491925953
 11
466.7473803198
 21
504.6991925953
 70
160
 71
2
 42
22.5
  3
DIMSTYLE_3
100
AcDbAlignedDimension
 13
484.5149554439
 23
450.5305616283
 14
462.0149554439
 24
468.9491925953
 50
180.0
100
AcDbRotatedDimension
  0
DIMENSION
  5
416
100
AcDbEntity
  8
0
100
AcDbDimension
 62
2
  6
CONTINUOUS
  2
*D12
 10
303.0653946998
 20
403.0588260206
 11
301.6531256953
 21
361.0905593018
 70
160
 71
3
 42
19.0
  1
%%c<>
  3
DIMSTYLE_3
100
AcDbAlignedDimension
 13
362.9984169204
 23
383.9544311273
 14
363.0315030646
 24
402.9544023195
 50
89.9002264534
100
AcDbRotatedDimension
  0
DIMENSION
  5
417
100
AcDbEntity
  8
0
100
AcDbDimension
 62
2
  6
CONTINUOUS
  2
*D13
 10
333.0149554439
 20
458.4491925953
 11
352.9792411582
 21
462.1991925953
 70
160
 71
2
 42
53.5
  3
DIMSTYLE_6
100
AcDbAlignedDimension
 13
386.5149554439
 23
441.4491925953
 14
333.0149554439
 24
441.4491925953
 50
180.0
100
AcDbRotatedDimension
  0
DIMENSION
  5
418
100
AcDbEntity
  8
0
100
AcDbDimension
 62
2
  6
CONTINUOUS
  2
*D14
 10
336.9649554439
 20
338.4491925953
 11
300.5038040777
 21
342.1991925953
 70
160
 71
3
 42
3.95
  3
DIMSTYLE_7
100
AcDbAlignedDimension
 13
333.0149554439
 23
346.9201650767
 14
336.9649554439
 24
346.9201650767
100
AcDbRotatedDimension
  0
DIMENSION
  5
419
100
AcDbEntity
  8
0
100
AcDbDimension
 62
2
  6
CONTINUOUS
  2
*D15
 10
283.0149554439
 20
353.4491925953
 11
280.8918894072
 21
389.3319705583
 70
160
 71
2
 42
80.0
  1
%%c<>
  3
DIMSTYLE_1
100
AcDbAlignedDimension
 13
330.0149554439
 23
433.4491925953
 14
330.0149554439
 24
353.4491925953
 50
270.0
100
AcDbRotatedDimension
  0
DIMENSION
  5
41A
100
AcDbEntity
  8
0
100
AcDbDimension
 62
2
  6
CONTINUOUS
  2
*D16
 10
676.6928197403
 20
412.8747155988
 11
647.4061650854
 21
425.007112443
 70
163
 71
3
 42
100.0
  1
     <>
  3
DIMSTYLE_8
100
AcDbDiametricDimension
 15
768.837251065
 25
374.0236695919
  0
DIMENSION
  5
41B
100
AcDbEntity
  8
0
100
AcDbDimension
 62
2
  6
CONTINUOUS
  2
*D17
 10
761.1268064807
 20
472.6407639994
 11
695.4686973533
 21
476.3991925953
 70
160
 71
3
 42
6.0
  1
M<>
  3
DIMSTYLE_7
100
AcDbAlignedDimension
 13
755.1204796128
 23
429.5213914185
 14
761.1204799058
 24
429.5229478325
 50
359.9915931262
100
AcDbRotatedDimension
  0
DIMENSION
  5
41C
100
AcDbEntity
  8
0
100
AcDbDimension
 62
2
  6
CONTINUOUS
  2
*D18
 10
677.7650354027
 20
485.9491925953
 11
718.931999827
 21
489.6991925953
 70
160
 71
2
 42
90.0
  1
{\Fgdt;o}<>
  3
DIMSTYLE_1
100
AcDbAlignedDimension
 13
767.7650354027
 23
374.889314208
 14
677.7650354027
 24
374.889314208
 50
180.0
100
AcDbRotatedDimension
  0
DIMENSION
  5
41D
100
AcDbEntity
  8
ZEICHNUNGSBEMASSUNGEN
100
AcDbDimension
 62
2
  6
CONTINUOUS
  2
*D19
 10
491.0149554439
 20
525.9491925953
 11
401.8364006121
 21
529.6991925953
 70
160
 71
2
 42
158.0
  3
DIMSTYLE_9
100
AcDbAlignedDimension
 13
333.0149554439
 23
432.2437452535
 14
491.0149554439
 24
435.4491912939
100
AcDbRotatedDimension
  0
DIMENSION
  5
41E
100
AcDbEntity
  8
ZEICHNUNGSBEMASSUNGEN
100
AcDbDimension
 62
2
  6
CONTINUOUS
  2
*D20
 10
333.0149554439
 20
328.4491925953
 11
358.2649554439
 21
332.1991925953
 70
160
 71
2
 42
58.0
  3
DIMSTYLE_6
100
AcDbAlignedDimension
 13
391.0149554439
 23
390.4491925953
 14
333.0149554439
 24
345.4491925953
 50
180.0
100
AcDbRotatedDimension
  0
DIMENSION
  5
41F
100
AcDbEntity
  8
ZEICHNUNGSBEMASSUNGEN
100
AcDbDimension
 62
2
  6
CONTINUOUS
  2
*D21
 10
682.0147450179
 20
352.8822031437
 11
646.8295918358
 21
320.4034504761
 70
160
 71
3
 42
115.0
  1
%%c<>
  3
DIMSTYLE_6
100
AcDbAlignedDimension
 13
761.2107045108
 23
436.3208033237
 14
679.8934246743
 24
355.0035234872
 50
225.0
100
AcDbRotatedDimension
  0
DIMENSION
  5
420
100
AcDbEntity
  8
0
100
AcDbDimension
 62
2
  6
CONTINUOUS
  2
*D22
 10
118.1938322858
 20
388.049096021
 11
71.5301311219
 21
388.2186607376
 70
163
 71
3
 42
63.0
  1
    %%c<>
  3
DIMSTYLE_8
100
AcDbDiametricDimension
 15
180.2611814152
 25
398.8492891697
  0
DIMENSION
  5
421
100
AcDbEntity
  8
0
100
AcDbDimension
 62
2
  6
CONTINUOUS
  2
*D23
 10
164.2130637901
 20
303.3961926843
 11
104.5810125001
 21
307.4751461449
 70
160
 71
3
 42
6.0
  1
M<>
  3
DIMSTYLE_7
100
AcDbAlignedDimension
 13
158.2786420349
 23
361.3503840981
 14
164.2786381932
 24
361.3435943861
 50
359.9351630129
100
AcDbRotatedDimension
  0
LEADER
  5
422
100
AcDbEntity
  8
0
100
AcDbLeader
 62
2
  6
CONTINUOUS
  3
STANDARD
 71
1
 72
0
 73
2
 75
0
 76
3
 10
164.2130637901
 20
303.3961926843
 30
0.0
 10
184.1161686582
 20
303.4543925953
 30
0.0
 10
184.1162527422
 20
303.4543925953
 30
0.0
340
423
1001
ACAD
1000
DSTYLE
1002
{
1070
77
1070
0
1070
341
1005
21C
1002
}
  0
INSERT
  5
423
102
{ACAD_REACTORS
330
422
102
}
100
AcDbEntity
  8
0
100
AcDbBlockReference
 62
2
  6
CONTINUOUS
  2
SYMBOL_173_BL4
 10
213.1162527422
 20
303.4029301962
  0
DIMENSION
  5
424
100
AcDbEntity
  8
0
100
AcDbDimension
 62
2
  6
CONTINUOUS
  2
*D24
 10
151.9147939144
 20
501.5729622291
 11
119.878396624
 21
504.5475865412
 70
160
 71
3
 42
5.5
  1
%%c<>
  3
DIMSTYLE_7
100
AcDbAlignedDimension
 13
146.4728786418
 23
463.9449434915
 14
151.9728720875
 24
463.953434549
 50
0.0884548999
100
AcDbRotatedDimension
  0
LEADER
  5
425
100
AcDbEntity
  8
0
100
AcDbLeader
 62
2
  6
CONTINUOUS
  3
STANDARD
 71
1
 72
0
 73
2
 75
0
 76
3
 10
151.9147939144
 20
501.5729622291
 30
0.0
 10
170.7470289974
 20
501.5491925953
 30
0.0
 10
170.7471130814
 20
501.5491925953
 30
0.0
340
426
1001
ACAD
1000
DSTYLE
1002
{
1070
77
1070
0
1070
341
1005
21C
1002
}
  0
INSERT
  5
426
102
{ACAD_REACTORS
330
425
102
}
100
AcDbEntity
  8
0
100
AcDbBlockReference
 62
2
  6
CONTINUOUS
  2
SYMBOL_176_BL5
 10
199.7471130814
 20
501.4977301962
  0
DIMENSION
  5
427
100
AcDbEntity
  8
0
100
AcDbDimension
 62
2
  6
CONTINUOUS
  2
*D25
 10
91.6846438316
 20
358.1636585115
 11
65.358122063
 21
353.5964232213
 70
163
 71
3
 42
135.0
  1
    %%c<>
  3
DIMSTYLE_10
100
AcDbDiametricDimension
 15
206.7703698695
 25
428.7347266792
  0
DIMENSION
  5
428
100
AcDbEntity
  8
0
100
AcDbDimension
 62
2
  6
CONTINUOUS
  2
*D26
 10
79.1580249514
 20
463.5186744945
 11
106.6521978103
 21
493.749517016
 70
162
 71
2
 42
0.7853981634
  1
8x<>
  3
DIMSTYLE_11
100
AcDb2LineAngularDimension
 13
149.2275068505
 23
492.5424042056
 14
149.2275068505
 24
396.4491925953
 15
147.106186507
 25
395.5705129389
 16
112.4542268046
 26
482.2277440153
  0
DIMENSION
  5
429
100
AcDbEntity
  8
0
100
AcDbDimension
 62
2
  6
CONTINUOUS
  2
*D27
 10
118.725461568
 20
467.0876439965
 11
102.2323431037
 21
463.3768488704
 70
162
 71
2
 42
0.3926990817
  1
4x<>
  3
DIMSTYLE_11
100
AcDb2LineAngularDimension
 13
92.867076178
 23
449.8096232679
 14
147.106186507
 24
395.5705129389
 15
148.0794565534
 25
396.2208311929
 16
106.6121113177
 26
457.2276391281
  0
DIMENSION
  5
42A
100
AcDbEntity
  8
0
100
AcDbDimension
 62
2
  6
CONTINUOUS
  2
*D28
 10
462.0149554439
 20
500.9491925953
 11
427.0863840153
 21
504.6991925953
 70
160
 71
2
 42
62.0
  3
DIMSTYLE_6
100
AcDbAlignedDimension
 13
400.0149554439
 23
389.82841344
 14
462.0149554439
 24
388.8213968546
100
AcDbRotatedDimension
  0
DIMENSION
  5
42B
100
AcDbEntity
  8
0
100
AcDbDimension
 62
2
  6
CONTINUOUS
  2
*D29
 10
333.0149554439
 20
468.4491925953
 11
362.5863840153
 21
472.1991925953
 70
160
 71
2
 42
67.0
  3
DIMSTYLE_6
100
AcDbAlignedDimension
 13
400.0149554439
 23
370.2861675395
 14
333.0149554439
 24
381.5045071331
 50
180.0
100
AcDbRotatedDimension
  0
MTEXT
  5
42C
100
AcDbEntity
  8
0
100
AcDbMText
 62
5
  6
CONTINUOUS
  7
STANDARD
 71
1
 72
1
 10
529.3004353235
 20
400.456254908
 30
0.0
 11
0.0
 21
1.0
 31
0.0
 44
0.9
  1
h7
 40
5.0
 41
7.5
  0
MTEXT
  5
42D
100
AcDbEntity
  8
0
100
AcDbMText
 62
5
  6
CONTINUOUS
  7
STANDARD
 71
1
 72
1
 10
544.2472243763
 20
402.1366358505
 30
0.0
 11
0.0
 21
1.0
 31
0.0
 44
0.9
  1
h7
 40
5.0
 41
7.5
  0
MTEXT
  5
42E
100
AcDbEntity
  8
0
100
AcDbMText
 62
5
  6
CONTINUOUS
  7
STANDARD
 71
1
 72
1
 10
514.5530111195
 20
402.1918493408
 30
0.0
 11
0.0
 21
1.0
 31
0.0
 44
0.9
  1
H7
 40
5.0
 41
7.8571428571
  0
MTEXT
  5
42F
100
AcDbEntity
  8
0
100
AcDbMText
 62
5
  6
CONTINUOUS
  7
STANDARD
 71
1
 72
1
 10
562.963576667
 20
487.9569493107
 30
0.0
 11
1.0
 21
0.0
 31
0.0
 44
0.9
  1
0,03
 40
5.0
 41
14.2857142857
  0
MTEXT
  5
430
100
AcDbEntity
  8
0
100
AcDbMText
 62
5
  6
CONTINUOUS
  7
STANDARD
 71
1
 72
1
 10
492.9187554037
 20
489.4390007575
 30
0.0
 11
1.0
 21
0.0
 31
0.0
 44
0.9
  1
Fitting\Plength
 40
4.0
 41
17.3333333333
  0
MTEXT
  5
431
100
AcDbEntity
  8
0
100
AcDbMText
 62
5
  6
CONTINUOUS
  7
STANDARD
 71
1
 72
1
 10
542.2205955103
 20
323.2750954275
 30
0.0
 11
1.0
 21
0.0
 31
0.0
 44
0.9
  1
0,03
 40
5.0
 41
14.2857142857
  0
MTEXT
  5
432
100
AcDbEntity
  8
0
100
AcDbMText
 62
5
  6
CONTINUOUS
  7
STANDARD
 71
1
 72
1
 10
295.5311651005
 20
422.7400306211
 30
0.0
 11
0.0
 21
1.0
 31
0.0
 44
0.9
  1
(for shaft diam. tol. j6/k6)
 40
5.0
 41
92.8571428571
  0
MTEXT
  5
433
100
AcDbEntity
  8
0
100
AcDbMText
 62
5
  6
CONTINUOUS
  7
STANDARD
 71
1
 72
1
 10
562.7350303934
 20
514.4491925953
 30
0.0
 11
1.0
 21
0.0
 31
0.0
 44
0.9
  1
0,03
 40
5.0
 41
14.2857142857
  0
MTEXT
  5
434
100
AcDbEntity
  8
0
100
AcDbMText
 62
5
  6
CONTINUOUS
  7
STANDARD
 71
1
 72
1
 10
587.9928065633
 20
514.1710858115
 30
0.0
 11
1.0
 21
0.0
 31
0.0
 44
0.9
  1
A
 40
5.0
 41
5.2380952381
  0
MTEXT
  5
435
100
AcDbEntity
  8
0
100
AcDbMText
 62
5
  6
CONTINUOUS
  7
STANDARD
 71
1
 72
1
 10
598.0931990268
 20
514.2350192805
 30
0.0
 11
1.0
 21
0.0
 31
0.0
 44
0.9
  1
B
 40
5.0
 41
4.880952381
  0
MTEXT
  5
436
100
AcDbEntity
  8
0
100
AcDbMText
 62
5
  6
CONTINUOUS
  7
STANDARD
 71
1
 72
1
 10
587.9675167516
 20
488.2896420209
 30
0.0
 11
1.0
 21
0.0
 31
0.0
 44
0.9
  1
A
 40
5.0
 41
5.2380952381
  0
MTEXT
  5
437
100
AcDbEntity
  8
0
100
AcDbMText
 62
5
  6
CONTINUOUS
  7
STANDARD
 71
1
 72
1
 10
598.327213569
 20
488.2921168648
 30
0.0
 11
1.0
 21
0.0
 31
0.0
 44
0.9
  1
B
 40
5.0
 41
4.880952381
  0
MTEXT
  5
438
100
AcDbEntity
  8
0
100
AcDbMText
 62
5
  6
CONTINUOUS
  7
STANDARD
 71
1
 72
1
 10
567.3907186031
 20
323.0663893071
 30
0.0
 11
1.0
 21
0.0
 31
0.0
 44
0.9
  1
A
 40
5.0
 41
5.2380952381
  0
MTEXT
  5
439
100
AcDbEntity
  8
0
100
AcDbMText
 62
5
  6
CONTINUOUS
  7
STANDARD
 71
1
 72
1
 10
577.604729606
 20
322.9766349661
 30
0.0
 11
1.0
 21
0.0
 31
0.0
 44
0.9
  1
B
 40
5.0
 41
4.880952381
  0
MTEXT
  5
43A
100
AcDbEntity
  8
0
100
AcDbMText
 62
5
  6
CONTINUOUS
  7
STANDARD
 71
1
 72
1
 10
549.0626637096
 20
468.9856840934
 30
0.0
 11
1.0
 21
0.0
 31
0.0
 44
0.9
  1
B
 40
5.0
 41
4.880952381
  0
MTEXT
  5
43B
100
AcDbEntity
  8
0
100
AcDbMText
 62
5
  6
CONTINUOUS
  7
STANDARD
 71
1
 72
1
 10
477.7900475578
 20
328.7336469427
 30
0.0
 11
1.0
 21
0.0
 31
0.0
 44
0.9
  1
A
 40
5.0
 41
5.2380952381
  0
MTEXT
  5
43C
100
AcDbEntity
  8
0
100
AcDbMText
 62
5
  6
CONTINUOUS
  7
STANDARD
 71
1
 72
1
 10
51.3361998801
 20
342.4024968817
 30
0.0
 11
0.8480480962
 21
0.5299192642
 31
0.0
 44
0.9
  1
pcd.
 40
5.0
 41
13.2142857143
  0
MTEXT
  5
43D
100
AcDbEntity
  8
0
100
AcDbMText
 62
5
  6
CONTINUOUS
  7
STANDARD
 71
1
 72
1
 10
40.8326973532
 20
382.6495572862
 30
0.0
 11
0.9659258263
 21
0.2588190451
 31
0.0
 44
0.9
  1
pcd.
 40
5.0
 41
13.2142857143
  0
MTEXT
  5
43E
100
AcDbEntity
  8
0
100
AcDbMText
 62
5
  6
CONTINUOUS
  7
STANDARD
 71
1
 72
1
 10
113.7796825345
 20
309.782514528
 30
0.0
 11
1.0
 21
0.0
 31
0.0
 44
0.9
  1
x12 deep
 40
5.0
 41
28.5714285714
  0
MTEXT
  5
43F
100
AcDbEntity
  8
0
100
AcDbMText
 62
5
  6
CONTINUOUS
  7
STANDARD
 71
1
 72
1
 10
232.9532815296
 20
305.7490676063
 30
0.0
 11
1.0
 21
0.0
 31
0.0
 44
0.9
  1
B
 40
5.0
 41
4.880952381
  0
MTEXT
  5
440
100
AcDbEntity
  8
0
100
AcDbMText
 62
5
  6
CONTINUOUS
  7
STANDARD
 71
1
 72
1
 10
211.9654446641
 20
305.8111799519
 30
0.0
 11
1.0
 21
0.0
 31
0.0
 44
0.9
  1
0,2
 40
5.0
 41
11.6666666667
  0
MTEXT
  5
441
100
AcDbEntity
  8
0
100
AcDbMText
 62
5
  6
CONTINUOUS
  7
STANDARD
 71
1
 72
1
 10
219.4710620155
 20
504.0626549168
 30
0.0
 11
1.0
 21
0.0
 31
0.0
 44
0.9
  1
B
 40
5.0
 41
4.880952381
  0
MTEXT
  5
442
100
AcDbEntity
  8
0
100
AcDbMText
 62
5
  6
CONTINUOUS
  7
STANDARD
 71
1
 72
1
 10
196.6641503902
 20
503.9901497226
 30
0.0
 11
1.0
 21
0.0
 31
0.0
 44
0.9
  1
0,25
 40
5.0
 41
15.2380952381
  0
MTEXT
  5
443
100
AcDbEntity
  8
0
100
AcDbMText
 62
5
  6
CONTINUOUS
  7
STANDARD
 71
1
 72
1
 10
618.667471631
 20
443.4939334672
 30
0.0
 11
0.8829475929
 21
-0.4694715628
 31
0.0
 44
0.9
  1
pcd.
 40
5.0
 41
13.2142857143
  0
MTEXT
  5
444
100
AcDbEntity
  8
0
100
AcDbMText
 62
5
  6
CONTINUOUS
  7
STANDARD
 71
1
 72
1
 10
707.3115107856
 20
478.7223280045
 30
0.0
 11
1.0
 21
0.0
 31
0.0
 44
0.9
  1
x12 deep
 40
5.0
 41
28.5714285714
  0
INSERT
  5
445
100
AcDbEntity
  8
0
100
AcDbBlockReference
 62
2
  6
CONTINUOUS
  2
SYMBOL_146_BL6
 10
474.5149554439
 20
325.9409338921
  0
LINE
  5
446
100
AcDbEntity
  8
0
100
AcDbLine
 62
2
  6
CONTINUOUS
 10
9.5864246948
 20
584.0940790977
 11
9.5864246948
 21
10.0702837384
  0
LINE
  5
447
100
AcDbEntity
  8
0
100
AcDbLine
 62
2
  6
CONTINUOUS
 10
9.5864246948
 20
10.0702837384
 11
830.2216160076
 21
10.0702837384
  0
LINE
  5
448
100
AcDbEntity
  8
0
100
AcDbLine
 62
2
  6
CONTINUOUS
 10
830.2216160076
 20
584.0940790977
 11
9.5864246948
 21
584.0940790977
  0
LINE
  5
449
100
AcDbEntity
  8
0
100
AcDbLine
 62
2
  6
CONTINUOUS
 10
830.2216160076
 20
10.0702837384
 11
830.2216160076
 21
584.0940790977
  0
LINE
  5
44A
100
AcDbEntity
  8
0
100
AcDbLine
 62
7
  6
CONTINUOUS
 10
333.0149554439
 20
348.4491925953
 11
333.0149554439
 21
438.4491925953
  0
LINE
  5
44B
100
AcDbEntity
  8
KOSMETIKAS_BLATT2_AUSBLENDEN
100
AcDbLine
 62
2
  6
CENTER
 10
336.9649554439
 20
433.4491925953
 11
336.9649554439
 21
353.4491925953
  0
LINE
  5
44C
100
AcDbEntity
  8
0
100
AcDbLine
 62
7
  6
CONTINUOUS
 10
462.0149554439
 20
320.9491925953
 11
454.0149554439
 21
320.9491925953
  0
LINE
  5
44D
100
AcDbEntity
  8
0
100
AcDbLine
 62
7
  6
CONTINUOUS
 10
483.6021112087
 20
339.2879600402
 11
474.0149554439
 21
338.4491925953
  0
LINE
  5
44E
100
AcDbEntity
  8
0
100
AcDbLine
 62
7
  6
CONTINUOUS
 10
422.944585427
 20
333.4491925953
 11
415.0149554439
 21
333.4491925953
  0
LINE
  5
44F
100
AcDbEntity
  8
0
100
AcDbLine
 62
7
  6
CONTINUOUS
 10
454.0149554439
 20
335.9491925953
 11
426.6149554458
 21
335.9491925953
  0
LINE
  5
450
100
AcDbEntity
  8
0
100
AcDbLine
 62
7
  6
CONTINUOUS
 10
474.0149554439
 20
338.4491925953
 11
462.0149554439
 21
338.4491925953
  0
LINE
  5
451
100
AcDbEntity
  8
0
100
AcDbLine
 62
7
  6
CONTINUOUS
 10
369.3972639903
 20
381.2491925953
 11
369.3972639903
 21
377.6491925953
  0
LINE
  5
452
100
AcDbEntity
  8
0
100
AcDbLine
 62
7
  6
CONTINUOUS
 10
414.5149554439
 20
348.4491925953
 11
400.1149554474
 21
348.4491925953
  0
LINE
  5
453
100
AcDbEntity
  8
0
100
AcDbLine
 62
7
  6
CONTINUOUS
 10
400.0149554439
 20
348.4491925953
 11
333.0149554439
 21
348.4491925953
  0
LINE
  5
454
100
AcDbEntity
  8
BEZUGSACHSEN
100
AcDbLine
 62
2
  6
CENTER
 10
372.5149554439
 20
379.4491925953
 11
372.5149554439
 21
370.6759863729
  0
LINE
  5
455
100
AcDbEntity
  8
BEZUGSACHSEN
100
AcDbLine
 62
2
  6
CENTER
 10
372.5149554439
 20
370.6759863729
 11
372.5149554439
 21
368.1991925953
  0
LINE
  5
456
100
AcDbEntity
  8
BEZUGSACHSEN
100
AcDbLine
 62
2
  6
CENTER
 10
372.5149554439
 20
379.4491925953
 11
372.5149554439
 21
388.8414210773
  0
LINE
  5
457
100
AcDbEntity
  8
BEZUGSACHSEN
100
AcDbLine
 62
2
  6
CENTER
 10
372.5149554439
 20
388.8414210773
 11
372.5149554439
 21
390.6991925953
  0
LINE
  5
458
100
AcDbEntity
  8
0
100
AcDbLine
 62
7
  6
CONTINUOUS
 10
375.6326468975
 20
377.6491925953
 11
375.6326468975
 21
381.2491925953
  0
LINE
  5
459
100
AcDbEntity
  8
FASEN
100
AcDbLine
 62
7
  6
CONTINUOUS
 10
400.0149554439
 20
438.3492007579
 11
400.0649513626
 21
438.3991966857
  0
LINE
  5
45A
100
AcDbEntity
  8
0
100
AcDbLine
 62
7
  6
CONTINUOUS
 10
490.0149554439
 20
353.4491925953
 11
485.0149554439
 21
353.4491925953
  0
LINE
  5
45B
100
AcDbEntity
  8
KOSMETIKAS_BLATT2_AUSBLENDEN
100
AcDbLine
 62
2
  6
CENTER
 10
336.9649554439
 20
353.4491925953
 11
333.0149554439
 21
353.4491925953
  0
LINE
  5
45C
100
AcDbEntity
  8
0
100
AcDbLine
 62
7
  6
CONTINUOUS
 10
485.0149554439
 20
353.5491925953
 11
484.5149554439
 21
353.5491925953
  0
LINE
  5
45D
100
AcDbEntity
  8
0
100
AcDbLine
 62
7
  6
CONTINUOUS
 10
378.5149554439
 20
357.6546399372
 11
333.0149554439
 21
357.6546399372
  0
LINE
  5
45E
100
AcDbEntity
  8
0
100
AcDbLine
 62
7
  6
CONTINUOUS
 10
369.3972639903
 20
377.6491925953
 11
372.5149554439
 21
375.8491925953
  0
LINE
  5
45F
100
AcDbEntity
  8
FASEN
100
AcDbLine
 62
7
  6
CONTINUOUS
 10
400.0149554439
 20
348.5491844328
 11
400.0649513626
 21
348.499188505
  0
LINE
  5
460
100
AcDbEntity
  8
0
100
AcDbLine
 62
7
  6
CONTINUOUS
 10
378.5149554439
 20
348.4491925953
 11
378.5149554439
 21
357.6546399372
  0
LINE
  5
461
100
AcDbEntity
  8
0
100
AcDbLine
 62
7
  6
CONTINUOUS
 10
378.5149554439
 20
429.2437452535
 11
378.5149554439
 21
438.4491925953
  0
LINE
  5
462
100
AcDbEntity
  8
FASEN
100
AcDbLine
 62
7
  6
CONTINUOUS
 10
426.5149554439
 20
450.8491705596
 11
426.5647322752
 21
450.8989473717
  0
LINE
  5
463
100
AcDbEntity
  8
0
100
AcDbLine
 62
7
  6
CONTINUOUS
 10
375.6326468975
 20
381.2491925953
 11
372.5149554439
 21
383.0491925953
  0
LINE
  5
464
100
AcDbEntity
  8
FASEN
100
AcDbLine
 62
7
  6
CONTINUOUS
 10
426.5149554439
 20
336.0492146311
 11
426.5647322752
 21
335.9994378189
  0
LINE
  5
465
100
AcDbEntity
  8
0
100
AcDbLine
 62
7
  6
CONTINUOUS
 10
386.5149554439
 20
348.4491925953
 11
386.5149554439
 21
438.4491925953
  0
LINE
  5
466
100
AcDbEntity
  8
KOSMETIKAS_BLATT2_AUSBLENDEN
100
AcDbLine
 62
2
  6
CENTER
 10
391.0149554439
 20
402.9491925953
 11
391.0149554439
 21
383.9491925953
  0
LINE
  5
467
100
AcDbEntity
  8
DEFAULT_2
100
AcDbLine
 62
8
  6
HIDDEN
 10
491.0149554439
 20
373.4491925953
 11
485.0149554439
 21
373.4491925953
  0
LINE
  5
468
100
AcDbEntity
  8
BEZUGSACHSEN
100
AcDbLine
 62
2
  6
CENTER
 10
372.5149554439
 20
379.4491925953
 11
363.9237719463
 21
379.4491925953
  0
LINE
  5
469
100
AcDbEntity
  8
BEZUGSACHSEN
100
AcDbLine
 62
2
  6
CENTER
 10
363.9237719463
 20
379.4491925953
 11
361.2649554439
 21
379.4491925953
  0
LINE
  5
46A
100
AcDbEntity
  8
BEZUGSACHSEN
100
AcDbLine
 62
2
  6
CENTER
 10
372.5149554439
 20
379.4491925953
 11
381.7962157683
 21
379.4491925953
  0
LINE
  5
46B
100
AcDbEntity
  8
BEZUGSACHSEN
100
AcDbLine
 62
2
  6
CENTER
 10
381.7962157683
 20
379.4491925953
 11
383.7649554439
 21
379.4491925953
  0
LINE
  5
46C
100
AcDbEntity
  8
0
100
AcDbLine
 62
7
  6
CONTINUOUS
 10
400.0149554439
 20
348.4491925953
 11
400.0149554439
 21
438.4491925953
  0
LINE
  5
46D
100
AcDbEntity
  8
FASEN
100
AcDbLine
 62
7
  6
CONTINUOUS
 10
400.1149554474
 20
438.4491925953
 11
400.1149554474
 21
348.4491925953
  0
LINE
  5
46E
100
AcDbEntity
  8
0
100
AcDbLine
 62
7
  6
CONTINUOUS
 10
372.5149554439
 20
383.0491925953
 11
369.3972639903
 21
381.2491925953
  0
LINE
  5
46F
100
AcDbEntity
  8
KOSMETIKAS_BLATT2_AUSBLENDEN
100
AcDbLine
 62
2
  6
CENTER
 10
391.0149554439
 20
383.9491925953
 11
366.0149554439
 21
383.9491925953
  0
LINE
  5
470
100
AcDbEntity
  8
0
100
AcDbLine
 62
7
  6
CONTINUOUS
 10
372.5149554439
 20
375.8491925953
 11
375.6326468975
 21
377.6491925953
  0
LINE
  5
471
100
AcDbEntity
  8
TEIL_STARTBEZUEGE
100
AcDbLine
 62
2
  6
CENTER
 10
503.1341761807
 20
393.4491925953
 11
320.2108062112
 21
393.4491925953
  0
LINE
  5
472
100
AcDbEntity
  8
RUNDUNGEN
100
AcDbLine
 62
9
  6
CONTINUOUS
 10
414.5149554439
 20
348.4491925953
 11
414.5149554439
 21
438.4491925953
  0
LINE
  5
473
100
AcDbEntity
  8
0
100
AcDbLine
 62
7
  6
CONTINUOUS
 10
415.0149554439
 20
333.4496813326
 11
415.0149554439
 21
453.4487038581
  0
LINE
  5
474
100
AcDbEntity
  8
0
100
AcDbLine
 62
7
  6
CONTINUOUS
 10
422.944585427
 20
333.4491925953
 11
422.944585427
 21
453.4491925953
  0
LINE
  5
475
100
AcDbEntity
  8
0
100
AcDbLine
 62
7
  6
CONTINUOUS
 10
426.5149554439
 20
335.9496609686
 11
426.5149554439
 21
450.9487242221
  0
LINE
  5
476
100
AcDbEntity
  8
FASEN
100
AcDbLine
 62
7
  6
CONTINUOUS
 10
426.6149554458
 20
450.9491925953
 11
426.6149554458
 21
335.9491925953
  0
LINE
  5
477
100
AcDbEntity
  8
KOSMETIKAS_BLATT2_AUSBLENDEN
100
AcDbLine
 62
2
  6
CENTER
 10
366.0149554439
 20
402.9491925953
 11
391.0149554439
 21
402.9491925953
  0
LINE
  5
478
100
AcDbEntity
  8
DEFAULT_2
100
AcDbLine
 62
8
  6
HIDDEN
 10
491.0149554439
 20
413.4491925953
 11
485.0149554439
 21
413.4491925953
  0
LINE
  5
479
100
AcDbEntity
  8
0
100
AcDbLine
 62
7
  6
CONTINUOUS
 10
378.5149554439
 20
429.2437452535
 11
333.0149554439
 21
429.2437452535
  0
LINE
  5
47A
100
AcDbEntity
  8
0
100
AcDbLine
 62
7
  6
CONTINUOUS
 10
454.0149554439
 20
320.9491925953
 11
454.0149554439
 21
465.9491925953
  0
LINE
  5
47B
100
AcDbEntity
  8
0
100
AcDbLine
 62
7
  6
CONTINUOUS
 10
485.0149554439
 20
433.3491925953
 11
484.5149554439
 21
433.3491925953
  0
LINE
  5
47C
100
AcDbEntity
  8
0
100
AcDbLine
 62
7
  6
CONTINUOUS
 10
490.0149554439
 20
433.4491925953
 11
485.0149554439
 21
433.4491925953
  0
LINE
  5
47D
100
AcDbEntity
  8
KOSMETIKAS_BLATT2_AUSBLENDEN
100
AcDbLine
 62
2
  6
CENTER
 10
333.0149554439
 20
433.4491925953
 11
336.9649554439
 21
433.4491925953
  0
LINE
  5
47E
100
AcDbEntity
  8
0
100
AcDbLine
 62
7
  6
CONTINUOUS
 10
462.0149554439
 20
320.9491925953
 11
462.0149554439
 21
465.9491925953
  0
LINE
  5
47F
100
AcDbEntity
  8
0
100
AcDbLine
 62
7
  6
CONTINUOUS
 10
414.5149554439
 20
438.4491925953
 11
400.1149554474
 21
438.4491925953
  0
LINE
  5
480
100
AcDbEntity
  8
0
100
AcDbLine
 62
7
  6
CONTINUOUS
 10
333.0149554439
 20
438.4491925953
 11
400.0149554439
 21
438.4491925953
  0
LINE
  5
481
100
AcDbEntity
  8
0
100
AcDbLine
 62
7
  6
CONTINUOUS
 10
426.5149554439
 20
335.9491925953
 11
422.944585427
 21
333.4491925953
  0
LINE
  5
482
100
AcDbEntity
  8
0
100
AcDbLine
 62
7
  6
CONTINUOUS
 10
474.0149554439
 20
448.4491925953
 11
462.0149554439
 21
448.4491925953
  0
LINE
  5
483
100
AcDbEntity
  8
0
100
AcDbLine
 62
7
  6
CONTINUOUS
 10
454.0149554439
 20
450.9491925953
 11
426.6149554458
 21
450.9491925953
  0
LINE
  5
484
100
AcDbEntity
  8
0
100
AcDbLine
 62
7
  6
CONTINUOUS
 10
426.5149554439
 20
450.9491925953
 11
422.944585427
 21
453.4491925953
  0
LINE
  5
485
100
AcDbEntity
  8
0
100
AcDbLine
 62
7
  6
CONTINUOUS
 10
474.0149554439
 20
338.4491925953
 11
474.0149554439
 21
448.4491925953
  0
LINE
  5
486
100
AcDbEntity
  8
0
100
AcDbLine
 62
7
  6
CONTINUOUS
 10
422.944585427
 20
453.4491925953
 11
415.0149554439
 21
453.4491925953
  0
LINE
  5
487
100
AcDbEntity
  8
0
100
AcDbLine
 62
7
  6
CONTINUOUS
 10
483.6021112087
 20
447.6104251505
 11
474.0149554439
 21
448.4491925953
  0
LINE
  5
488
100
AcDbEntity
  8
RUNDUNGEN
100
AcDbLine
 62
9
  6
CONTINUOUS
 10
483.6021112086
 20
447.6104251505
 11
483.6021112086
 21
339.2879600402
  0
LINE
  5
489
100
AcDbEntity
  8
RUNDUNGEN
100
AcDbLine
 62
7
  6
CONTINUOUS
 10
484.5149554439
 20
446.6142293964
 11
484.5149554439
 21
340.2841557943
  0
LINE
  5
48A
100
AcDbEntity
  8
0
100
AcDbLine
 62
7
  6
CONTINUOUS
 10
485.0149554439
 20
353.4494260697
 11
485.0149554439
 21
433.448959121
  0
LINE
  5
48B
100
AcDbEntity
  8
RUNDUNGEN
100
AcDbLine
 62
9
  6
CONTINUOUS
 10
490.0149554439
 20
433.4491925953
 11
490.0149554439
 21
353.4491925953
  0
LINE
  5
48C
100
AcDbEntity
  8
RUNDUNGEN
100
AcDbLine
 62
7
  6
CONTINUOUS
 10
491.0149554439
 20
432.4491906101
 11
491.0149554439
 21
354.4491945806
  0
LINE
  5
48D
100
AcDbEntity
  8
0
100
AcDbLine
 62
7
  6
CONTINUOUS
 10
462.0149554439
 20
465.9491925953
 11
454.0149554439
 21
465.9491925953
  0
LINE
  5
48E
100
AcDbEntity
  8
0
100
AcDbLine
 62
7
  6
CONTINUOUS
 10
670.8368146551
 20
373.9387872476
 11
670.8368146551
 21
371.6297872476
  0
LINE
  5
48F
100
AcDbEntity
  8
0
100
AcDbLine
 62
7
  6
CONTINUOUS
 10
674.914266639
 20
371.6297872476
 11
674.914266639
 21
373.9387872476
  0
LINE
  5
490
100
AcDbEntity
  8
0
100
AcDbLine
 62
7
  6
CONTINUOUS
 10
672.2502984521
 20
416.3720496958
 11
670.6175888943
 21
414.739340138
  0
LINE
  5
491
100
AcDbEntity
  8
0
100
AcDbLine
 62
7
  6
CONTINUOUS
 10
673.500782842
 20
411.8561461903
 11
675.1334923998
 21
413.4888557481
  0
LINE
  5
492
100
AcDbEntity
  8
0
100
AcDbLine
 62
7
  6
CONTINUOUS
 10
742.2754407504
 20
341.5209718478
 11
744.5844407504
 21
341.5209718478
  0
LINE
  5
493
100
AcDbEntity
  8
0
100
AcDbLine
 62
7
  6
CONTINUOUS
 10
744.5844407504
 20
345.5984238317
 11
742.2754407504
 21
345.5984238317
  0
LINE
  5
494
100
AcDbEntity
  8
0
100
AcDbLine
 62
7
  6
CONTINUOUS
 10
699.8421783022
 20
342.9344556448
 11
701.47488786
 21
341.301746087
  0
LINE
  5
495
100
AcDbEntity
  8
0
100
AcDbLine
 62
7
  6
CONTINUOUS
 10
704.3580818077
 20
344.1849400347
 11
702.7253722499
 21
345.8176495925
  0
LINE
  5
496
100
AcDbEntity
  8
0
100
AcDbLine
 62
7
  6
CONTINUOUS
 10
677.7650354027
 20
429.2437452535
 11
677.7650354027
 21
357.6546399372
  0
LINE
  5
497
100
AcDbEntity
  8
0
100
AcDbLine
 62
7
  6
CONTINUOUS
 10
682.4328298064
 20
378.242488436
 11
682.4328298064
 21
376.510488436
  0
LINE
  5
498
100
AcDbEntity
  8
0
100
AcDbLine
 62
7
  6
CONTINUOUS
 10
700.945630055
 20
445.3774133429
 11
699.8616202165
 21
443.338687351
  0
LINE
  5
499
100
AcDbEntity
  8
0
100
AcDbLine
 62
7
  6
CONTINUOUS
 10
744.0551829454
 20
445.5966391037
 11
741.8470752638
 21
444.9215528375
  0
LINE
  5
49A
100
AcDbEntity
  8
0
100
AcDbLine
 62
7
  6
CONTINUOUS
 10
686.9704827445
 20
348.4491925953
 11
758.5595880609
 21
348.4491925953
  0
LINE
  5
49B
100
AcDbEntity
  8
0
100
AcDbLine
 62
7
  6
CONTINUOUS
 10
737.971739562
 20
353.116986999
 11
739.703739562
 21
353.116986999
  0
LINE
  5
49C
100
AcDbEntity
  8
0
100
AcDbLine
 62
7
  6
CONTINUOUS
 10
670.8368146551
 20
371.6297872476
 11
672.8755406471
 21
370.5457774092
  0
LINE
  5
49D
100
AcDbEntity
  8
0
100
AcDbLine
 62
7
  6
CONTINUOUS
 10
670.6175888943
 20
414.739340138
 11
671.2926751605
 21
412.5312324565
  0
LINE
  5
49E
100
AcDbEntity
  8
0
100
AcDbLine
 62
7
  6
CONTINUOUS
 10
685.491360268
 20
376.510488436
 11
685.491360268
 21
378.242488436
  0
LINE
  5
49F
100
AcDbEntity
  8
BEZUGSACHSEN
100
AcDbLine
 62
2
  6
CENTER
 10
687.4096963433
 20
428.8045316547
 11
687.4096963433
 21
420.3045316547
  0
LINE
  5
4A0
100
AcDbEntity
  8
BEZUGSACHSEN
100
AcDbLine
 62
2
  6
CENTER
 10
687.4096963433
 20
358.093853536
 11
687.4096963433
 21
349.593853536
  0
LINE
  5
4A1
100
AcDbEntity
  8
BEZUGSACHSEN
100
AcDbLine
 62
2
  6
CENTER
 10
687.4096963433
 20
358.093853536
 11
687.4096963433
 21
366.593853536
  0
LINE
  5
4A2
100
AcDbEntity
  8
BEZUGSACHSEN
100
AcDbLine
 62
2
  6
CENTER
 10
687.4096963433
 20
428.8045316547
 11
687.4096963433
 21
437.3045316547
  0
LINE
  5
4A3
100
AcDbEntity
  8
0
100
AcDbLine
 62
7
  6
CONTINUOUS
 10
703.254630055
 20
441.299961359
 11
704.3386398934
 21
443.338687351
  0
LINE
  5
4A4
100
AcDbEntity
  8
0
100
AcDbLine
 62
7
  6
CONTINUOUS
 10
705.8263312433
 20
433.7813981917
 11
705.0132064966
 21
432.2521329608
  0
LINE
  5
4A5
100
AcDbEntity
  8
0
100
AcDbLine
 62
7
  6
CONTINUOUS
 10
742.8046985554
 20
441.0807355982
 11
745.0128062369
 21
441.7558218644
  0
LINE
  5
4A6
100
AcDbEntity
  8
0
100
AcDbLine
 62
7
  6
CONTINUOUS
 10
739.703739562
 20
356.1755174607
 11
737.971739562
 21
356.1755174607
  0
LINE
  5
4A7
100
AcDbEntity
  8
BEZUGSACHSEN
100
AcDbLine
 62
2
  6
CENTER
 10
758.120374462
 20
358.093853536
 11
749.620374462
 21
358.093853536
  0
LINE
  5
4A8
100
AcDbEntity
  8
BEZUGSACHSEN
100
AcDbLine
 62
2
  6
CENTER
 10
687.4096963433
 20
358.093853536
 11
678.9096963433
 21
358.093853536
  0
LINE
  5
4A9
100
AcDbEntity
  8
BEZUGSACHSEN
100
AcDbLine
 62
2
  6
CENTER
 10
687.4096963433
 20
358.093853536
 11
695.9096963433
 21
358.093853536
  0
LINE
  5
4AA
100
AcDbEntity
  8
BEZUGSACHSEN
100
AcDbLine
 62
2
  6
CENTER
 10
758.120374462
 20
358.093853536
 11
766.620374462
 21
358.093853536
  0
LINE
  5
4AB
100
AcDbEntity
  8
0
100
AcDbLine
 62
7
  6
CONTINUOUS
 10
674.914266639
 20
373.9387872476
 11
672.8755406471
 21
375.0227970861
  0
LINE
  5
4AC
100
AcDbEntity
  8
0
100
AcDbLine
 62
7
  6
CONTINUOUS
 10
682.4328298064
 20
376.510488436
 11
683.9620950372
 21
375.6973636893
  0
LINE
  5
4AD
100
AcDbEntity
  8
0
100
AcDbLine
 62
7
  6
CONTINUOUS
 10
675.1334923998
 20
413.4888557481
 11
674.4584061336
 21
415.6969634296
  0
LINE
  5
4AE
100
AcDbEntity
  8
0
100
AcDbLine
 62
7
  6
CONTINUOUS
 10
707.5583312433
 20
430.72286773
 11
708.3714559901
 21
432.2521329608
  0
LINE
  5
4AF
100
AcDbEntity
  8
0
100
AcDbLine
 62
7
  6
CONTINUOUS
 10
685.491360268
 20
378.242488436
 11
683.9620950372
 21
379.0556131828
  0
LINE
  5
4B0
100
AcDbEntity
  8
0
100
AcDbLine
 62
7
  6
CONTINUOUS
 10
730.8532081397
 20
375.1991925953
 11
734.7650354027
 21
375.1991925953
  0
LINE
  5
4B1
100
AcDbEntity
  8
BEZUGSACHSEN
100
AcDbLine
 62
2
  6
CENTER
 10
773.7650354027
 20
379.4491925953
 11
760.7650354027
 21
379.4491925953
  0
LINE
  5
4B2
100
AcDbEntity
  8
0
100
AcDbLine
 62
7
  6
CONTINUOUS
 10
700.5172645684
 20
345.1425633263
 11
699.8421783022
 21
342.9344556448
  0
LINE
  5
4B3
100
AcDbEntity
  8
0
100
AcDbLine
 62
7
  6
CONTINUOUS
 10
672.8755406471
 20
375.0227970861
 11
670.8368146551
 21
373.9387872476
  0
LINE
  5
4B4
100
AcDbEntity
  8
0
100
AcDbLine
 62
7
  6
CONTINUOUS
 10
771.0716646717
 20
371.2014217611
 11
773.2797723533
 21
370.5263354949
  0
LINE
  5
4B5
100
AcDbEntity
  8
0
100
AcDbLine
 62
7
  6
CONTINUOUS
 10
741.1914309119
 20
343.5596978397
 11
742.2754407504
 21
341.5209718478
  0
LINE
  5
4B6
100
AcDbEntity
  8
0
100
AcDbLine
 62
7
  6
CONTINUOUS
 10
722.0150354027
 20
383.9788441329
 11
722.0150354027
 21
373.4632600427
  0
LINE
  5
4B7
100
AcDbEntity
  8
TEIL_STARTBEZUEGE
100
AcDbLine
 62
2
  6
CENTER
 10
722.7650354027
 20
339.0055776103
 11
722.7650354027
 21
447.7135073582
  0
LINE
  5
4B8
100
AcDbEntity
  8
0
100
AcDbLine
 62
7
  6
CONTINUOUS
 10
723.5150354027
 20
373.4632600427
 11
723.5150354027
 21
383.9788441329
  0
LINE
  5
4B9
100
AcDbEntity
  8
0
100
AcDbLine
 62
7
  6
CONTINUOUS
 10
703.6829955415
 20
341.9768323532
 11
704.3580818077
 21
344.1849400347
  0
LINE
  5
4BA
100
AcDbEntity
  8
0
100
AcDbLine
 62
7
  6
CONTINUOUS
 10
683.9620950372
 20
379.0556131828
 11
682.4328298064
 21
378.242488436
  0
LINE
  5
4BB
100
AcDbEntity
  8
0
100
AcDbLine
 62
7
  6
CONTINUOUS
 10
672.8755406471
 20
370.5457774092
 11
674.914266639
 21
371.6297872476
  0
LINE
  5
4BC
100
AcDbEntity
  8
0
100
AcDbLine
 62
7
  6
CONTINUOUS
 10
683.9620950372
 20
375.6973636893
 11
685.491360268
 21
376.510488436
  0
LINE
  5
4BD
100
AcDbEntity
  8
TEIL_STARTBEZUEGE
100
AcDbLine
 62
2
  6
CENTER
 10
669.1608145458
 20
393.4491925953
 11
777.5178779974
 21
393.4491925953
  0
LINE
  5
4BE
100
AcDbEntity
  8
0
100
AcDbLine
 62
7
  6
CONTINUOUS
 10
774.2373956448
 20
374.3671527342
 11
772.0292879633
 21
375.0422390004
  0
LINE
  5
4BF
100
AcDbEntity
  8
0
100
AcDbLine
 62
7
  6
CONTINUOUS
 10
737.1586148153
 20
354.6462522299
 11
737.971739562
 21
353.116986999
  0
LINE
  5
4C0
100
AcDbEntity
  8
0
100
AcDbLine
 62
7
  6
CONTINUOUS
 10
745.6684505889
 20
343.5596978397
 11
744.5844407504
 21
345.5984238317
  0
LINE
  5
4C1
100
AcDbEntity
  8
0
100
AcDbLine
 62
7
  6
CONTINUOUS
 10
740.5168643087
 20
354.6462522299
 11
739.703739562
 21
356.1755174607
  0
LINE
  5
4C2
100
AcDbEntity
  8
0
100
AcDbLine
 62
7
  6
CONTINUOUS
 10
741.8470752638
 20
444.9215528375
 11
741.1719889976
 21
442.713445156
  0
LINE
  5
4C3
100
AcDbEntity
  8
0
100
AcDbLine
 62
7
  6
CONTINUOUS
 10
745.0128062369
 20
441.7558218644
 11
745.6878925031
 21
443.9639295459
  0
LINE
  5
4C4
100
AcDbEntity
  8
0
100
AcDbLine
 62
7
  6
CONTINUOUS
 10
761.5679757681
 20
411.2010215014
 11
760.0387105373
 21
410.3878967547
  0
LINE
  5
4C5
100
AcDbEntity
  8
0
100
AcDbLine
 62
7
  6
CONTINUOUS
 10
772.6545301583
 20
416.3526077815
 11
770.6158041664
 21
415.2685979431
  0
LINE
  5
4C6
100
AcDbEntity
  8
0
100
AcDbLine
 62
7
  6
CONTINUOUS
 10
761.5679757681
 20
407.8427720079
 11
763.097240999
 21
408.6558967547
  0
LINE
  5
4C7
100
AcDbEntity
  8
0
100
AcDbLine
 62
7
  6
CONTINUOUS
 10
772.6545301583
 20
411.8755881046
 11
774.6932561502
 21
412.9595979431
  0
LINE
  5
4C8
100
AcDbEntity
  8
0
100
AcDbLine
 62
7
  6
CONTINUOUS
 10
671.2926751605
 20
412.5312324565
 11
673.500782842
 21
411.8561461903
  0
LINE
  5
4C9
100
AcDbEntity
  8
0
100
AcDbLine
 62
7
  6
CONTINUOUS
 10
674.4584061336
 20
415.6969634296
 11
672.2502984521
 21
416.3720496958
  0
LINE
  5
4CA
100
AcDbEntity
  8
0
100
AcDbLine
 62
7
  6
CONTINUOUS
 10
705.0132064966
 20
432.2521329608
 11
705.8263312433
 21
430.72286773
  0
LINE
  5
4CB
100
AcDbEntity
  8
0
100
AcDbLine
 62
7
  6
CONTINUOUS
 10
699.8616202165
 20
443.338687351
 11
700.945630055
 21
441.299961359
  0
LINE
  5
4CC
100
AcDbEntity
  8
0
100
AcDbLine
 62
7
  6
CONTINUOUS
 10
708.3714559901
 20
432.2521329608
 11
707.5583312433
 21
433.7813981917
  0
LINE
  5
4CD
100
AcDbEntity
  8
0
100
AcDbLine
 62
7
  6
CONTINUOUS
 10
704.3386398934
 20
443.338687351
 11
703.254630055
 21
445.3774133429
  0
LINE
  5
4CE
100
AcDbEntity
  8
0
100
AcDbLine
 62
7
  6
CONTINUOUS
 10
734.7650354027
 20
377.5457842364
 11
734.7650354027
 21
375.1991925953
  0
LINE
  5
4CF
100
AcDbEntity
  8
0
100
AcDbLine
 62
7
  6
CONTINUOUS
 10
737.971739562
 20
356.1755174607
 11
737.1586148153
 21
354.6462522299
  0
LINE
  5
4D0
100
AcDbEntity
  8
0
100
AcDbLine
 62
7
  6
CONTINUOUS
 10
739.703739562
 20
353.116986999
 11
740.5168643087
 21
354.6462522299
  0
LINE
  5
4D1
100
AcDbEntity
  8
0
100
AcDbLine
 62
7
  6
CONTINUOUS
 10
760.0387105373
 20
408.6558967547
 11
761.5679757681
 21
407.8427720079
  0
LINE
  5
4D2
100
AcDbEntity
  8
0
100
AcDbLine
 62
7
  6
CONTINUOUS
 10
763.097240999
 20
410.3878967547
 11
761.5679757681
 21
411.2010215014
  0
LINE
  5
4D3
100
AcDbEntity
  8
BEZUGSACHSEN
100
AcDbLine
 62
2
  6
CENTER
 10
758.120374462
 20
428.8045316547
 11
758.120374462
 21
420.3045316547
  0
LINE
  5
4D4
100
AcDbEntity
  8
BEZUGSACHSEN
100
AcDbLine
 62
2
  6
CENTER
 10
758.120374462
 20
358.093853536
 11
758.120374462
 21
349.593853536
  0
LINE
  5
4D5
100
AcDbEntity
  8
BEZUGSACHSEN
100
AcDbLine
 62
2
  6
CENTER
 10
758.120374462
 20
358.093853536
 11
758.120374462
 21
366.593853536
  0
LINE
  5
4D6
100
AcDbEntity
  8
BEZUGSACHSEN
100
AcDbLine
 62
2
  6
CENTER
 10
758.120374462
 20
428.8045316547
 11
758.120374462
 21
437.3045316547
  0
LINE
  5
4D7
100
AcDbEntity
  8
0
100
AcDbLine
 62
7
  6
CONTINUOUS
 10
760.0387105373
 20
410.3878967547
 11
760.0387105373
 21
408.6558967547
  0
LINE
  5
4D8
100
AcDbEntity
  8
0
100
AcDbLine
 62
7
  6
CONTINUOUS
 10
763.097240999
 20
408.6558967547
 11
763.097240999
 21
410.3878967547
  0
LINE
  5
4D9
100
AcDbEntity
  8
0
100
AcDbLine
 62
7
  6
CONTINUOUS
 10
742.2754407504
 20
345.5984238317
 11
741.1914309119
 21
343.5596978397
  0
LINE
  5
4DA
100
AcDbEntity
  8
0
100
AcDbLine
 62
7
  6
CONTINUOUS
 10
702.7253722499
 20
345.8176495925
 11
700.5172645684
 21
345.1425633263
  0
LINE
  5
4DB
100
AcDbEntity
  8
BEZUGSACHSEN
100
AcDbLine
 62
2
  6
CENTER
 10
758.120374462
 20
428.8045316547
 11
749.620374462
 21
428.8045316547
  0
LINE
  5
4DC
100
AcDbEntity
  8
BEZUGSACHSEN
100
AcDbLine
 62
2
  6
CENTER
 10
687.4096963433
 20
428.8045316547
 11
678.9096963433
 21
428.8045316547
  0
LINE
  5
4DD
100
AcDbEntity
  8
BEZUGSACHSEN
100
AcDbLine
 62
2
  6
CENTER
 10
687.4096963433
 20
428.8045316547
 11
695.9096963433
 21
428.8045316547
  0
LINE
  5
4DE
100
AcDbEntity
  8
BEZUGSACHSEN
100
AcDbLine
 62
2
  6
CENTER
 10
758.120374462
 20
428.8045316547
 11
766.620374462
 21
428.8045316547
  0
LINE
  5
4DF
100
AcDbEntity
  8
0
100
AcDbLine
 62
7
  6
CONTINUOUS
 10
705.8263312433
 20
430.72286773
 11
707.5583312433
 21
430.72286773
  0
LINE
  5
4E0
100
AcDbEntity
  8
0
100
AcDbLine
 62
7
  6
CONTINUOUS
 10
707.5583312433
 20
433.7813981917
 11
705.8263312433
 21
433.7813981917
  0
LINE
  5
4E1
100
AcDbEntity
  8
0
100
AcDbLine
 62
7
  6
CONTINUOUS
 10
770.6158041664
 20
412.9595979431
 11
772.6545301583
 21
411.8755881046
  0
LINE
  5
4E2
100
AcDbEntity
  8
0
100
AcDbLine
 62
7
  6
CONTINUOUS
 10
770.3965784055
 20
373.4095294426
 11
771.0716646717
 21
371.2014217611
  0
LINE
  5
4E3
100
AcDbEntity
  8
0
100
AcDbLine
 62
7
  6
CONTINUOUS
 10
767.7650354027
 20
357.6546399372
 11
767.7650354027
 21
429.2437452535
  0
LINE
  5
4E4
100
AcDbEntity
  8
0
100
AcDbLine
 62
7
  6
CONTINUOUS
 10
770.6158041664
 20
415.2685979431
 11
770.6158041664
 21
412.9595979431
  0
LINE
  5
4E5
100
AcDbEntity
  8
0
100
AcDbLine
 62
7
  6
CONTINUOUS
 10
744.5844407504
 20
341.5209718478
 11
745.6684505889
 21
343.5596978397
  0
LINE
  5
4E6
100
AcDbEntity
  8
0
100
AcDbLine
 62
7
  6
CONTINUOUS
 10
772.0292879633
 20
375.0422390004
 11
770.3965784055
 21
373.4095294426
  0
LINE
  5
4E7
100
AcDbEntity
  8
0
100
AcDbLine
 62
7
  6
CONTINUOUS
 10
701.47488786
 20
341.301746087
 11
703.6829955415
 21
341.9768323532
  0
LINE
  5
4E8
100
AcDbEntity
  8
0
100
AcDbLine
 62
7
  6
CONTINUOUS
 10
758.5595880609
 20
438.4491925953
 11
686.9704827445
 21
438.4491925953
  0
LINE
  5
4E9
100
AcDbEntity
  8
0
100
AcDbLine
 62
7
  6
CONTINUOUS
 10
700.945630055
 20
441.299961359
 11
703.254630055
 21
441.299961359
  0
LINE
  5
4EA
100
AcDbEntity
  8
0
100
AcDbLine
 62
7
  6
CONTINUOUS
 10
774.6932561502
 20
415.2685979431
 11
772.6545301583
 21
416.3526077815
  0
LINE
  5
4EB
100
AcDbEntity
  8
0
100
AcDbLine
 62
7
  6
CONTINUOUS
 10
741.1719889976
 20
442.713445156
 11
742.8046985554
 21
441.0807355982
  0
LINE
  5
4EC
100
AcDbEntity
  8
0
100
AcDbLine
 62
7
  6
CONTINUOUS
 10
774.912481911
 20
372.1590450527
 11
774.2373956448
 21
374.3671527342
  0
LINE
  5
4ED
100
AcDbEntity
  8
0
100
AcDbLine
 62
7
  6
CONTINUOUS
 10
774.6932561502
 20
412.9595979431
 11
774.6932561502
 21
415.2685979431
  0
LINE
  5
4EE
100
AcDbEntity
  8
0
100
AcDbLine
 62
7
  6
CONTINUOUS
 10
773.2797723533
 20
370.5263354949
 11
774.912481911
 21
372.1590450527
  0
LINE
  5
4EF
100
AcDbEntity
  8
0
100
AcDbLine
 62
7
  6
CONTINUOUS
 10
703.254630055
 20
445.3774133429
 11
700.945630055
 21
445.3774133429
  0
LINE
  5
4F0
100
AcDbEntity
  8
0
100
AcDbLine
 62
7
  6
CONTINUOUS
 10
745.6878925031
 20
443.9639295459
 11
744.0551829454
 21
445.5966391037
  0
LWPOLYLINE
  5
4F1
100
AcDbEntity
  8
0
100
AcDbPolyline
 62
2
  6
CONTINUOUS
 90
5
 70
0
 10
91.9560239871
 20
453.6371111582
 10
86.4899679513
 20
462.0110129616
 10
111.7113626688
 20
478.4742531646
 10
117.1774187046
 20
470.1003513612
 10
91.9560239871
 20
453.6371111582
  0
LWPOLYLINE
  5
4F2
100
AcDbEntity
  8
0
100
AcDbPolyline
 62
2
  6
CONTINUOUS
 90
5
 70
0
 10
98.0647524889
 20
481.4169202625
 10
94.0613365013
 20
490.5805800352
 10
115.4432093043
 20
499.9218840063
 10
119.4466252919
 20
490.7582242336
 10
98.0647524889
 20
481.4169202625
  0
LINE
  5
4F3
100
AcDbEntity
  8
TEIL_STARTBEZUEGE
100
AcDbLine
 62
2
  6
CENTER
 10
149.2275068505
 20
319.4498837276
 11
149.2275068505
 21
467.7861911129
  0
LWPOLYLINE
  5
4F4
100
AcDbEntity
  8
0
100
AcDbPolyline
 62
2
  6
CONTINUOUS
 90
5
 70
0
 10
53.63133463
 20
336.2955019267
 10
85.4981053319
 20
355.8363444352
 10
80.2706188009
 20
364.3612130306
 10
48.4038480991
 20
344.8203705221
 10
53.63133463
 20
336.2955019267
  0
LINE
  5
4F5
100
AcDbEntity
  8
TEIL_STARTBEZUEGE
100
AcDbLine
 62
2
  6
CENTER
 10
222.8739068505
 20
393.4491925953
 11
75.5274913479
 21
393.4491925953
  0
LWPOLYLINE
  5
4F6
100
AcDbEntity
  8
0
100
AcDbPolyline
 62
2
  6
CONTINUOUS
 90
5
 70
0
 10
41.0746220064
 20
375.8985470276
 10
75.4391973936
 20
381.8782458042
 10
73.7248810208
 20
391.7302059834
 10
39.3603056336
 20
385.7505072069
 10
41.0746220064
 20
375.8985470276
  0
CIRCLE
  5
4F7
100
AcDbEntity
  8
BEZUGSACHSEN
100
AcDbCircle
 62
7
  6
CONTINUOUS
 10
372.5149554439
 20
379.4491925953
 40
5.25
  0
ARC
  5
4F8
100
AcDbEntity
  8
RUNDUNGEN
100
AcDbCircle
 62
7
  6
CONTINUOUS
 10
483.5149554439
 20
340.2841547364
 40
1.0
100
AcDbArc
 50
275.0000012658
 51
0.000013917
  0
ARC
  5
4F9
100
AcDbEntity
  8
RUNDUNGEN
100
AcDbCircle
 62
7
  6
CONTINUOUS
 10
483.5149554439
 20
446.6142304543
 40
1.0
100
AcDbArc
 50
359.999986083
 51
84.9999987342
  0
ARC
  5
4FA
100
AcDbEntity
  8
RUNDUNGEN
100
AcDbCircle
 62
7
  6
CONTINUOUS
 10
490.0149554439
 20
354.4491925953
 40
1.0
100
AcDbArc
 50
270.0
 51
0.0000224863
  0
ARC
  5
4FB
100
AcDbEntity
  8
RUNDUNGEN
100
AcDbCircle
 62
7
  6
CONTINUOUS
 10
490.0149554439
 20
432.4491925953
 40
1.0
100
AcDbArc
 50
359.9999775137
 51
90.0
  0
ARC
  5
4FC
100
AcDbEntity
  8
RUNDUNGEN
100
AcDbCircle
 62
7
  6
CONTINUOUS
 10
414.5149554439
 20
347.9491925953
 40
0.5
100
AcDbArc
 50
22.4992710587
 51
90.0
  0
ARC
  5
4FD
100
AcDbEntity
  8
RUNDUNGEN
100
AcDbCircle
 62
7
  6
CONTINUOUS
 10
414.5149554439
 20
438.9491925953
 40
0.5
100
AcDbArc
 50
270.0
 51
337.5007289413
  0
ARC
  5
4FE
100
AcDbEntity
  8
0
100
AcDbCircle
 62
2
  6
CONTINUOUS
 10
126.9536432432
 20
371.175328988
 40
3.0
100
AcDbArc
 50
255.0
 51
195.0
  0
ARC
  5
4FF
100
AcDbEntity
  8
0
100
AcDbCircle
 62
2
  6
CONTINUOUS
 10
137.172978731
 20
364.3469873212
 40
3.0
100
AcDbArc
 50
255.0
 51
195.0
  0
CIRCLE
  5
500
100
AcDbEntity
  8
BEZUGSACHSEN
100
AcDbCircle
 62
7
  6
CONTINUOUS
 10
101.4977991205
 20
345.7194848653
 40
2.75
  0
CIRCLE
  5
501
100
AcDbEntity
  8
BEZUGSACHSEN
100
AcDbCircle
 62
7
  6
CONTINUOUS
 10
137.172978731
 20
364.3469873212
 40
2.5
  0
CIRCLE
  5
502
100
AcDbEntity
  8
BEZUGSACHSEN
100
AcDbCircle
 62
7
  6
CONTINUOUS
 10
126.9536432432
 20
371.175328988
 40
2.5
  0
ARC
  5
503
100
AcDbEntity
  8
0
100
AcDbCircle
 62
2
  6
CONTINUOUS
 10
137.172978731
 20
422.5513978695
 40
3.0
100
AcDbArc
 50
255.0
 51
195.0
  0
ARC
  5
504
100
AcDbEntity
  8
0
100
AcDbCircle
 62
2
  6
CONTINUOUS
 10
117.7275068505
 20
393.4491925953
 40
3.0
100
AcDbArc
 50
255.0
 51
195.0
  0
ARC
  5
505
100
AcDbEntity
  8
0
100
AcDbCircle
 62
2
  6
CONTINUOUS
 10
126.9536432432
 20
415.7230562027
 40
3.0
100
AcDbArc
 50
255.0
 51
195.0
  0
CIRCLE
  5
506
100
AcDbEntity
  8
BEZUGSACHSEN
100
AcDbCircle
 62
7
  6
CONTINUOUS
 10
101.4977991205
 20
441.1789003254
 40
2.75
  0
CIRCLE
  5
507
100
AcDbEntity
  8
BEZUGSACHSEN
100
AcDbCircle
 62
7
  6
CONTINUOUS
 10
81.7275068505
 20
393.4491925953
 40
2.75
  0
CIRCLE
  5
508
100
AcDbEntity
  8
BEZUGSACHSEN
100
AcDbCircle
 62
7
  6
CONTINUOUS
 10
126.9536432432
 20
415.7230562027
 40
2.5
  0
CIRCLE
  5
509
100
AcDbEntity
  8
BEZUGSACHSEN
100
AcDbCircle
 62
7
  6
CONTINUOUS
 10
137.172978731
 20
422.5513978695
 40
2.5
  0
CIRCLE
  5
50A
100
AcDbEntity
  8
BEZUGSACHSEN
100
AcDbCircle
 62
7
  6
CONTINUOUS
 10
117.7275068505
 20
393.4491925953
 40
2.5
  0
ARC
  5
50B
100
AcDbEntity
  8
0
100
AcDbCircle
 62
2
  6
CONTINUOUS
 10
149.2275068505
 20
361.9491925953
 40
3.0
100
AcDbArc
 50
255.0
 51
195.0
  0
ARC
  5
50C
100
AcDbEntity
  8
0
100
AcDbCircle
 62
2
  6
CONTINUOUS
 10
161.28203497
 20
364.3469873212
 40
3.0
100
AcDbArc
 50
255.0
 51
195.0
  0
ARC
  5
50D
100
AcDbEntity
  8
0
100
AcDbCircle
 62
2
  6
CONTINUOUS
 10
171.5013704579
 20
371.175328988
 40
3.0
100
AcDbArc
 50
255.0
 51
195.0
  0
CIRCLE
  5
50E
100
AcDbEntity
  8
BEZUGSACHSEN
100
AcDbCircle
 62
7
  6
CONTINUOUS
 10
149.2275068505
 20
325.9491925953
 40
2.75
  0
CIRCLE
  5
50F
100
AcDbEntity
  8
BEZUGSACHSEN
100
AcDbCircle
 62
7
  6
CONTINUOUS
 10
196.9572145806
 20
345.7194848653
 40
2.75
  0
CIRCLE
  5
510
100
AcDbEntity
  8
BEZUGSACHSEN
100
AcDbCircle
 62
7
  6
CONTINUOUS
 10
171.5013704579
 20
371.175328988
 40
2.5
  0
CIRCLE
  5
511
100
AcDbEntity
  8
BEZUGSACHSEN
100
AcDbCircle
 62
7
  6
CONTINUOUS
 10
161.28203497
 20
364.3469873212
 40
2.5
  0
CIRCLE
  5
512
100
AcDbEntity
  8
BEZUGSACHSEN
100
AcDbCircle
 62
7
  6
CONTINUOUS
 10
149.2275068505
 20
361.9491925953
 40
2.5
  0
CIRCLE
  5
513
100
AcDbEntity
  8
0
100
AcDbCircle
 62
7
  6
CONTINUOUS
 10
149.2275068505
 20
393.4491925953
 40
72.5
  0
CIRCLE
  5
514
100
AcDbEntity
  8
KOSMETIKAS_BLATT2_AUSBLENDEN
100
AcDbCircle
 62
2
  6
CENTER
 10
149.2275068505
 20
393.4491925953
 40
67.5
  0
CIRCLE
  5
515
100
AcDbEntity
  8
0
100
AcDbCircle
 62
7
  6
CONTINUOUS
 10
149.2275068505
 20
393.4491925953
 40
55.0
  0
CIRCLE
  5
516
100
AcDbEntity
  8
RUNDUNGEN
100
AcDbCircle
 62
9
  6
CONTINUOUS
 10
149.2275068505
 20
393.4491925953
 40
54.1612325486
  0
CIRCLE
  5
517
100
AcDbEntity
  8
RUNDUNGEN
100
AcDbCircle
 62
9
  6
CONTINUOUS
 10
149.2275068505
 20
393.4491925953
 40
53.1650367851
  0
CIRCLE
  5
518
100
AcDbEntity
  8
RUNDUNGEN
100
AcDbCircle
 62
7
  6
CONTINUOUS
 10
149.2275068505
 20
393.4491925953
 40
40.0
  0
CIRCLE
  5
519
100
AcDbEntity
  8
RUNDUNGEN
100
AcDbCircle
 62
9
  6
CONTINUOUS
 10
149.2275068505
 20
393.4491925953
 40
38.9999986986
  0
CIRCLE
  5
51A
100
AcDbEntity
  8
KOSMETIKAS_BLATT2_AUSBLENDEN
100
AcDbCircle
 62
2
  6
CENTER
 10
149.2275068505
 20
393.4491925953
 40
31.5
  0
CIRCLE
  5
51B
100
AcDbEntity
  8
0
100
AcDbCircle
 62
7
  6
CONTINUOUS
 10
149.2275068505
 20
393.4491925953
 40
20.0
  0
ARC
  5
51C
100
AcDbEntity
  8
0
100
AcDbCircle
 62
2
  6
CONTINUOUS
 10
161.28203497
 20
422.5513978695
 40
3.0
100
AcDbArc
 50
255.0
 51
195.0
  0
ARC
  5
51D
100
AcDbEntity
  8
0
100
AcDbCircle
 62
2
  6
CONTINUOUS
 10
149.2275068505
 20
424.9491925953
 40
3.0
100
AcDbArc
 50
255.0
 51
195.0
  0
CIRCLE
  5
51E
100
AcDbEntity
  8
BEZUGSACHSEN
100
AcDbCircle
 62
7
  6
CONTINUOUS
 10
149.2275068505
 20
424.9491925953
 40
2.5
  0
CIRCLE
  5
51F
100
AcDbEntity
  8
BEZUGSACHSEN
100
AcDbCircle
 62
7
  6
CONTINUOUS
 10
161.28203497
 20
422.5513978695
 40
2.5
  0
ARC
  5
520
100
AcDbEntity
  8
0
100
AcDbCircle
 62
2
  6
CONTINUOUS
 10
180.7275068505
 20
393.4491925953
 40
3.0
100
AcDbArc
 50
255.0
 51
195.0
  0
CIRCLE
  5
521
100
AcDbEntity
  8
BEZUGSACHSEN
100
AcDbCircle
 62
7
  6
CONTINUOUS
 10
180.7275068505
 20
393.4491925953
 40
2.5
  0
ARC
  5
522
100
AcDbEntity
  8
0
100
AcDbCircle
 62
2
  6
CONTINUOUS
 10
171.5013704579
 20
415.7230562027
 40
3.0
100
AcDbArc
 50
255.0
 51
195.0
  0
CIRCLE
  5
523
100
AcDbEntity
  8
BEZUGSACHSEN
100
AcDbCircle
 62
7
  6
CONTINUOUS
 10
171.5013704579
 20
415.7230562027
 40
2.5
  0
CIRCLE
  5
524
100
AcDbEntity
  8
BEZUGSACHSEN
100
AcDbCircle
 62
7
  6
CONTINUOUS
 10
149.2275068505
 20
460.9491925953
 40
2.75
  0
CIRCLE
  5
525
100
AcDbEntity
  8
BEZUGSACHSEN
100
AcDbCircle
 62
7
  6
CONTINUOUS
 10
216.7275068505
 20
393.4491925953
 40
2.75
  0
CIRCLE
  5
526
100
AcDbEntity
  8
BEZUGSACHSEN
100
AcDbCircle
 62
7
  6
CONTINUOUS
 10
196.9572145806
 20
441.1789003254
 40
2.75
  0
ARC
  5
527
100
AcDbEntity
  8
BEZUGSACHSEN
100
AcDbCircle
 62
7
  6
CONTINUOUS
 10
702.100130055
 20
343.5596978397
 40
5.0
100
AcDbArc
 50
101.480781908
 51
80.0798930601
  0
ARC
  5
528
100
AcDbEntity
  8
BEZUGSACHSEN
100
AcDbCircle
 62
7
  6
CONTINUOUS
 10
672.8755406471
 20
372.7842872476
 40
5.0
100
AcDbArc
 50
10.5613949768
 51
349.4386050232
  0
CIRCLE
  5
529
100
AcDbEntity
  8
BEZUGSACHSEN
100
AcDbCircle
 62
7
  6
CONTINUOUS
 10
683.9620950372
 20
377.376488436
 40
5.0
  0
CIRCLE
  5
52A
100
AcDbEntity
  8
0
100
AcDbCircle
 62
7
  6
CONTINUOUS
 10
672.8755406471
 20
372.7842872476
 40
4.25
  0
CIRCLE
  5
52B
100
AcDbEntity
  8
0
100
AcDbCircle
 62
7
  6
CONTINUOUS
 10
702.100130055
 20
343.5596978397
 40
4.25
  0
CIRCLE
  5
52C
100
AcDbEntity
  8
0
100
AcDbCircle
 62
7
  6
CONTINUOUS
 10
683.9620950372
 20
377.376488436
 40
3.5
  0
ARC
  5
52D
100
AcDbEntity
  8
0
100
AcDbCircle
 62
2
  6
CONTINUOUS
 10
687.4096963433
 20
358.093853536
 40
3.0
100
AcDbArc
 50
255.0
 51
195.0
  0
CIRCLE
  5
52E
100
AcDbEntity
  8
BEZUGSACHSEN
100
AcDbCircle
 62
7
  6
CONTINUOUS
 10
675.0353276726
 20
345.7194848653
 40
2.75
  0
CIRCLE
  5
52F
100
AcDbEntity
  8
BEZUGSACHSEN
100
AcDbCircle
 62
7
  6
CONTINUOUS
 10
687.4096963433
 20
358.093853536
 40
2.5
  0
ARC
  5
530
100
AcDbEntity
  8
BEZUGSACHSEN
100
AcDbCircle
 62
7
  6
CONTINUOUS
 10
702.100130055
 20
443.338687351
 40
5.0
100
AcDbArc
 50
280.5613949768
 51
259.4386050232
  0
ARC
  5
531
100
AcDbEntity
  8
BEZUGSACHSEN
100
AcDbCircle
 62
7
  6
CONTINUOUS
 10
672.8755406471
 20
414.1140979431
 40
5.0
100
AcDbArc
 50
11.480781908
 51
350.0798930601
  0
CIRCLE
  5
532
100
AcDbEntity
  8
BEZUGSACHSEN
100
AcDbCircle
 62
7
  6
CONTINUOUS
 10
706.6923312433
 20
432.2521329608
 40
5.0
  0
CIRCLE
  5
533
100
AcDbEntity
  8
0
100
AcDbCircle
 62
7
  6
CONTINUOUS
 10
702.100130055
 20
443.338687351
 40
4.25
  0
CIRCLE
  5
534
100
AcDbEntity
  8
0
100
AcDbCircle
 62
7
  6
CONTINUOUS
 10
672.8755406471
 20
414.1140979431
 40
4.25
  0
CIRCLE
  5
535
100
AcDbEntity
  8
0
100
AcDbCircle
 62
7
  6
CONTINUOUS
 10
706.6923312433
 20
432.2521329608
 40
3.5
  0
ARC
  5
536
100
AcDbEntity
  8
0
100
AcDbCircle
 62
2
  6
CONTINUOUS
 10
687.4096963433
 20
428.8045316547
 40
3.0
100
AcDbArc
 50
255.0
 51
195.0
  0
CIRCLE
  5
537
100
AcDbEntity
  8
BEZUGSACHSEN
100
AcDbCircle
 62
7
  6
CONTINUOUS
 10
655.2650354027
 20
393.4491925953
 40
2.75
  0
CIRCLE
  5
538
100
AcDbEntity
  8
BEZUGSACHSEN
100
AcDbCircle
 62
7
  6
CONTINUOUS
 10
675.0353276726
 20
441.1789003254
 40
2.75
  0
CIRCLE
  5
539
100
AcDbEntity
  8
BEZUGSACHSEN
100
AcDbCircle
 62
7
  6
CONTINUOUS
 10
687.4096963433
 20
428.8045316547
 40
2.5
  0
ARC
  5
53A
100
AcDbEntity
  8
BEZUGSACHSEN
100
AcDbCircle
 62
7
  6
CONTINUOUS
 10
772.6545301583
 20
372.7842872476
 40
5.0
100
AcDbArc
 50
191.480781908
 51
170.0798930601
  0
ARC
  5
53B
100
AcDbEntity
  8
BEZUGSACHSEN
100
AcDbCircle
 62
7
  6
CONTINUOUS
 10
743.4299407504
 20
343.5596978397
 40
5.0
100
AcDbArc
 50
100.5613949768
 51
79.4386050232
  0
CIRCLE
  5
53C
100
AcDbEntity
  8
BEZUGSACHSEN
100
AcDbCircle
 62
7
  6
CONTINUOUS
 10
738.837739562
 20
354.6462522299
 40
5.0
  0
CIRCLE
  5
53D
100
AcDbEntity
  8
0
100
AcDbCircle
 62
7
  6
CONTINUOUS
 10
772.6545301583
 20
372.7842872476
 40
4.25
  0
CIRCLE
  5
53E
100
AcDbEntity
  8
0
100
AcDbCircle
 62
7
  6
CONTINUOUS
 10
743.4299407504
 20
343.5596978397
 40
4.25
  0
CIRCLE
  5
53F
100
AcDbEntity
  8
0
100
AcDbCircle
 62
7
  6
CONTINUOUS
 10
738.837739562
 20
354.6462522299
 40
3.5
  0
ARC
  5
540
100
AcDbEntity
  8
0
100
AcDbCircle
 62
2
  6
CONTINUOUS
 10
758.120374462
 20
358.093853536
 40
3.0
100
AcDbArc
 50
255.0
 51
195.0
  0
CIRCLE
  5
541
100
AcDbEntity
  8
BEZUGSACHSEN
100
AcDbCircle
 62
7
  6
CONTINUOUS
 10
770.4947431328
 20
345.7194848653
 40
2.75
  0
CIRCLE
  5
542
100
AcDbEntity
  8
BEZUGSACHSEN
100
AcDbCircle
 62
7
  6
CONTINUOUS
 10
722.7650354027
 20
325.9491925953
 40
2.75
  0
CIRCLE
  5
543
100
AcDbEntity
  8
BEZUGSACHSEN
100
AcDbCircle
 62
7
  6
CONTINUOUS
 10
758.120374462
 20
358.093853536
 40
2.5
  0
CIRCLE
  5
544
100
AcDbEntity
  8
0
100
AcDbCircle
 62
7
  6
CONTINUOUS
 10
722.7650354027
 20
393.4491925953
 40
72.5
  0
ARC
  5
545
100
AcDbEntity
  8
KOSMETIKAS_BLATT2_AUSBLENDEN
100
AcDbCircle
 62
2
  6
CENTER
 10
722.7650354027
 20
393.4491925953
 40
67.5
100
AcDbArc
 50
42.6866769484
 51
47.321437409
  0
ARC
  5
546
100
AcDbEntity
  8
KOSMETIKAS_BLATT2_AUSBLENDEN
100
AcDbCircle
 62
2
  6
CENTER
 10
722.7650354027
 20
393.4491925953
 40
67.5
100
AcDbArc
 50
357.6866723551
 51
2.3218269964
  0
ARC
  5
547
100
AcDbEntity
  8
KOSMETIKAS_BLATT2_AUSBLENDEN
100
AcDbCircle
 62
2
  6
CENTER
 10
722.7650354027
 20
393.4491925953
 40
67.5
100
AcDbArc
 50
312.6864918091
 51
317.3214929518
  0
ARC
  5
548
100
AcDbEntity
  8
KOSMETIKAS_BLATT2_AUSBLENDEN
100
AcDbCircle
 62
2
  6
CENTER
 10
722.7650354027
 20
393.4491925953
 40
67.5
100
AcDbArc
 50
267.686373718
 51
272.3205690481
  0
ARC
  5
549
100
AcDbEntity
  8
KOSMETIKAS_BLATT2_AUSBLENDEN
100
AcDbCircle
 62
2
  6
CENTER
 10
722.7650354027
 20
393.4491925953
 40
67.5
100
AcDbArc
 50
222.6866769484
 51
227.321437409
  0
ARC
  5
54A
100
AcDbEntity
  8
KOSMETIKAS_BLATT2_AUSBLENDEN
100
AcDbCircle
 62
2
  6
CENTER
 10
722.7650354027
 20
393.4491925953
 40
67.5
100
AcDbArc
 50
177.6866723551
 51
182.3218269964
  0
ARC
  5
54B
100
AcDbEntity
  8
KOSMETIKAS_BLATT2_AUSBLENDEN
100
AcDbCircle
 62
2
  6
CENTER
 10
722.7650354027
 20
393.4491925953
 40
67.5
100
AcDbArc
 50
132.6864918091
 51
137.3214929518
  0
ARC
  5
54C
100
AcDbEntity
  8
KOSMETIKAS_BLATT2_AUSBLENDEN
100
AcDbCircle
 62
2
  6
CENTER
 10
722.7650354027
 20
393.4491925953
 40
67.5
100
AcDbArc
 50
87.686373718
 51
92.3205690481
  0
CIRCLE
  5
54D
100
AcDbEntity
  8
0
100
AcDbCircle
 62
7
  6
CONTINUOUS
 10
722.7650354027
 20
393.4491925953
 40
60.0
  0
ARC
  5
54E
100
AcDbEntity
  8
0
100
AcDbCircle
 62
7
  6
CONTINUOUS
 10
722.7650354027
 20
393.4491925953
 40
57.5
100
AcDbArc
 50
128.4999504092
 51
141.5000495908
  0
ARC
  5
54F
100
AcDbEntity
  8
0
100
AcDbCircle
 62
7
  6
CONTINUOUS
 10
722.7650354027
 20
393.4491925953
 40
57.5
100
AcDbArc
 50
218.4999504092
 51
231.5000495908
  0
ARC
  5
550
100
AcDbEntity
  8
0
100
AcDbCircle
 62
7
  6
CONTINUOUS
 10
722.7650354027
 20
393.4491925953
 40
57.5
100
AcDbArc
 50
308.4999504092
 51
321.5000495908
  0
ARC
  5
551
100
AcDbEntity
  8
0
100
AcDbCircle
 62
7
  6
CONTINUOUS
 10
722.7650354027
 20
393.4491925953
 40
57.5
100
AcDbArc
 50
38.4999504092
 51
51.5000495908
  0
CIRCLE
  5
552
100
AcDbEntity
  8
BLATT1_LINKS_AUSBLENDEN
100
AcDbCircle
 62
2
  6
CENTER
 10
722.7650354027
 20
393.4491925953
 40
50.0
  0
ARC
  5
553
100
AcDbEntity
  8
RUNDUNGEN
100
AcDbCircle
 62
9
  6
CONTINUOUS
 10
722.7650354027
 20
393.4491925953
 40
45.4999998809
100
AcDbArc
 50
81.6017587195
 51
98.3986826387
  0
ARC
  5
554
100
AcDbEntity
  8
RUNDUNGEN
100
AcDbCircle
 62
9
  6
CONTINUOUS
 10
722.7650354027
 20
393.4491925953
 40
45.4999998809
100
AcDbArc
 50
171.5899654231
 51
188.4102553709
  0
ARC
  5
555
100
AcDbEntity
  8
RUNDUNGEN
100
AcDbCircle
 62
9
  6
CONTINUOUS
 10
722.7650354027
 20
393.4491925953
 40
45.4999998809
100
AcDbArc
 50
261.6017587195
 51
278.3986826387
  0
ARC
  5
556
100
AcDbEntity
  8
RUNDUNGEN
100
AcDbCircle
 62
9
  6
CONTINUOUS
 10
722.7650354027
 20
393.4491925953
 40
45.4999998809
100
AcDbArc
 50
351.5899654231
 51
8.4102553709
  0
ARC
  5
557
100
AcDbEntity
  8
BEZUGSACHSEN
100
AcDbCircle
 62
7
  6
CONTINUOUS
 10
722.7650354027
 20
393.4491925953
 40
40.0
100
AcDbArc
 50
118.9092039782
 51
196.0907960218
  0
ARC
  5
558
100
AcDbEntity
  8
BEZUGSACHSEN
100
AcDbCircle
 62
7
  6
CONTINUOUS
 10
722.7650354027
 20
393.4491925953
 40
40.0
100
AcDbArc
 50
28.9092039782
 51
106.0907960218
  0
ARC
  5
559
100
AcDbEntity
  8
BEZUGSACHSEN
100
AcDbCircle
 62
7
  6
CONTINUOUS
 10
722.7650354027
 20
393.4491925953
 40
40.0
100
AcDbArc
 50
208.9092039782
 51
286.0907960218
  0
ARC
  5
55A
100
AcDbEntity
  8
BEZUGSACHSEN
100
AcDbCircle
 62
7
  6
CONTINUOUS
 10
722.7650354027
 20
393.4491925953
 40
40.0
100
AcDbArc
 50
298.9092039782
 51
16.0907960218
  0
CIRCLE
  5
55B
100
AcDbEntity
  8
0
100
AcDbCircle
 62
7
  6
CONTINUOUS
 10
722.7650354027
 20
393.4491925953
 40
23.5
  0
ARC
  5
55C
100
AcDbEntity
  8
0
100
AcDbCircle
 62
7
  6
CONTINUOUS
 10
722.7650354027
 20
393.4491925953
 40
20.0
100
AcDbArc
 50
272.1490956269
 51
267.8509043731
  0
CIRCLE
  5
55D
100
AcDbEntity
  8
0
100
AcDbCircle
 62
7
  6
CONTINUOUS
 10
722.7650354027
 20
393.4491925953
 40
9.5
  0
ARC
  5
55E
100
AcDbEntity
  8
BEZUGSACHSEN
100
AcDbCircle
 62
7
  6
CONTINUOUS
 10
743.4299407504
 20
443.338687351
 40
5.0
100
AcDbArc
 50
281.480781908
 51
260.0798930601
  0
CIRCLE
  5
55F
100
AcDbEntity
  8
0
100
AcDbCircle
 62
7
  6
CONTINUOUS
 10
743.4299407504
 20
443.338687351
 40
4.25
  0
CIRCLE
  5
560
100
AcDbEntity
  8
BEZUGSACHSEN
100
AcDbCircle
 62
7
  6
CONTINUOUS
 10
722.7650354027
 20
460.9491925953
 40
2.75
  0
ARC
  5
561
100
AcDbEntity
  8
BEZUGSACHSEN
100
AcDbCircle
 62
7
  6
CONTINUOUS
 10
772.6545301583
 20
414.1140979431
 40
5.0
100
AcDbArc
 50
190.5613949768
 51
169.4386050232
  0
CIRCLE
  5
562
100
AcDbEntity
  8
BEZUGSACHSEN
100
AcDbCircle
 62
7
  6
CONTINUOUS
 10
761.5679757681
 20
409.5218967547
 40
5.0
  0
CIRCLE
  5
563
100
AcDbEntity
  8
0
100
AcDbCircle
 62
7
  6
CONTINUOUS
 10
772.6545301583
 20
414.1140979431
 40
4.25
  0
CIRCLE
  5
564
100
AcDbEntity
  8
0
100
AcDbCircle
 62
7
  6
CONTINUOUS
 10
761.5679757681
 20
409.5218967547
 40
3.5
  0
CIRCLE
  5
565
100
AcDbEntity
  8
BEZUGSACHSEN
100
AcDbCircle
 62
7
  6
CONTINUOUS
 10
790.2650354027
 20
393.4491925953
 40
2.75
  0
ARC
  5
566
100
AcDbEntity
  8
0
100
AcDbCircle
 62
2
  6
CONTINUOUS
 10
758.120374462
 20
428.8045316547
 40
3.0
100
AcDbArc
 50
255.0
 51
195.0
  0
CIRCLE
  5
567
100
AcDbEntity
  8
BEZUGSACHSEN
100
AcDbCircle
 62
7
  6
CONTINUOUS
 10
770.4947431328
 20
441.1789003254
 40
2.75
  0
CIRCLE
  5
568
100
AcDbEntity
  8
BEZUGSACHSEN
100
AcDbCircle
 62
7
  6
CONTINUOUS
 10
758.120374462
 20
428.8045316547
 40
2.5
  0
SPLINE
  5
569
100
AcDbEntity
  8
0
100
AcDbSpline
 62
7
  6
CONTINUOUS
 70
0
 71
3
 72
11
 73
7
 74
0
 42
0.0000001
 43
0.0000001
 44
0.0000000001
 40
0.0
 40
0.0
 40
0.0
 40
0.0
 40
0.2501475559
 40
0.5002410001
 40
0.7502158828
 40
1.0
 40
1.0
 40
1.0
 40
1.0
 10
386.5149554438
 20
393.4491925841
 30
0.0
 10
386.5149554438
 20
396.5462359374
 30
0.0
 10
386.3066270282
 20
402.7420736929
 30
0.0
 10
385.2060382164
 20
411.9822337755
 30
0.0
 10
382.9053981707
 20
421.0117402956
 30
0.0
 10
380.2090749201
 20
426.6565101397
 30
0.0
 10
378.5149554439
 20
429.2437452535
 30
0.0
  0
SPLINE
  5
56A
100
AcDbEntity
  8
0
100
AcDbSpline
 62
7
  6
CONTINUOUS
 70
0
 71
3
 72
11
 73
7
 74
0
 42
0.0000001
 43
0.0000001
 44
0.0000000001
 40
0.0
 40
0.0
 40
0.0
 40
0.0
 40
0.2497850568
 40
0.4997595086
 40
0.7498526844
 40
1.0
 40
1.0
 40
1.0
 40
1.0
 10
378.5149554439
 20
357.6546399372
 30
0.0
 10
380.2090812886
 20
360.2418847769
 30
0.0
 10
382.9054052223
 20
365.8866618894
 30
0.0
 10
385.2060409793
 20
374.916172224
 30
0.0
 10
386.3066274966
 20
384.1563207675
 30
0.0
 10
386.5149554437
 20
390.3521522129
 30
0.0
 10
386.5149554438
 20
393.4491925841
 30
0.0
  0
ENDSEC
  0
SECTION
  2
OBJECTS
  0
DICTIONARY
  5
C
100
AcDbDictionary
280
0
281
1
  3
ACAD_GROUP
350
D
  3
ACAD_MLINESTYLE
350
17
  3
ACAD_LAYOUT
350
1A
  3
ACAD_PLOTSETTINGS
350
19
  3
ACAD_PLOTSTYLENAME
350
E
  0
DICTIONARY
  5
D
102
{ACAD_REACTORS
330
C
102
}
100
AcDbDictionary
280
0
281
1
  0
ACDBDICTIONARYWDFLT
  5
E
102
{ACAD_REACTORS
330
C
102
}
100
AcDbDictionary
281
1
  3
Normal
350
F
100
AcDbDictionaryWithDefault
340
F
  0
DICTIONARY
  5
17
102
{ACAD_REACTORS
330
C
102
}
100
AcDbDictionary
280
0
281
1
  3
Standard
350
18
  0
DICTIONARY
  5
19
102
{ACAD_REACTORS
330
C
102
}
100
AcDbDictionary
281
1
  0
DICTIONARY
  5
1A
102
{ACAD_REACTORS
330
C
102
}
100
AcDbDictionary
281
1
  3
Model
350
56B
  3
Layout1
350
56C
  0
ACDBPLACEHOLDER
  5
F
102
{ACAD_REACTORS
330
E
102
}
  0
MLINESTYLE
  5
18
102
{ACAD_REACTORS
330
17
102
}
100
AcDbMlineStyle
  2
STANDARD
 70
0
  3

 62
256
 51
90.0
 52
90.0
 71
2
 49
0.5
 62
256
  6
BYLAYER
 49
-0.5
 62
256
  6
BYLAYER
  0
LAYOUT
  5
56B
102
{ACAD_REACTORS
330
1A
102
}
100
AcDbPlotSettings
  1

  2
none_device
  4
ISO_A3_(420.00_x_297.00_MM)
  6

 40
0.0
 41
0.0
 42
0.0
 43
0.0
 44
420.0
 45
297.0
 46
0.0
 47
0.0
 48
0.0
 49
0.0
140
0.0
141
0.0
142
1.0
143
1.0
 70
1024
 72
1
 73
0
 74
0
  7

 75
0
147
1.0
148
0.0
149
0.0
100
AcDbLayout
  1
Model
 70
0
 71
0
 10
0.0
 20
0.0
 11
420.0
 21
297.0
 12
0.0
 22
0.0
 32
0.0
 14
0.0
 24
0.0
 34
0.0
 15
0.0
 25
0.0
 35
0.0
146
0.0
 13
0.0
 23
0.0
 33
0.0
 16
1.0
 26
0.0
 36
0.0
 17
0.0
 27
1.0
 37
0.0
 76
0
330
219
345
0
346
0
  0
LAYOUT
  5
56C
102
{ACAD_REACTORS
330
1A
102
}
100
AcDbPlotSettings
  1

  2
none_device
  4
ISO_A3_(420.00_x_297.00_MM)
  6

 40
0.0
 41
0.0
 42
0.0
 43
0.0
 44
420.0
 45
297.0
 46
0.0
 47
0.0
 48
0.0
 49
0.0
140
0.0
141
0.0
142
1.0
143
1.0
 70
0
 72
1
 73
0
 74
0
  7

 75
0
147
1.0
148
0.0
149
0.0
100
AcDbLayout
  1
Layout1
 70
0
 71
1
 10
0.0
 20
0.0
 11
420.0
 21
297.0
 12
0.0
 22
0.0
 32
0.0
 14
0.0
 24
0.0
 34
0.0
 15
0.0
 25
0.0
 35
0.0
146
0.0
 13
0.0
 23
0.0
 33
0.0
 16
1.0
 26
0.0
 36
0.0
 17
0.0
 27
1.0
 37
0.0
 76
0
330
21A
345
0
346
0
  0
ENDSEC
  0
EOF
